BitTorrentTracker PerecTracker.org
BitTorrentTracker PerecTracker.org
    
Регистрация  ·  Вход
 
 · 
Забыли пароль?

  • Святий Вінсент / St. Vincent (Теодор Мелфі) [2014 р., комедія, драма, BDRip] MVO (Цікава ідея) Ukr

    Ответить на тему
     
    Автор Сообщение

    older

    Создавать темы 03-Дек-2015 14:34

           

    [Цитировать]

    Святий Вінсент / St. Vincen

    Рік випуску: 2014
    Країна: США
    Кіностудія / кінокомпанія: Chernin Entertainment, Crescendo Productions, Goldenlight Films
    Жанр: комедія, драма
    Тривалість: 01:42:26
    Субтитри: відсутні
    Переклад: багатоголосий, закадровий (професійний) - Цікава ідея, на замовлення HURTOM.COM
    Аудіодоріжка: українська-Режисер: Теодор Мелфі
    Сценарій: Теодор Мелфі
    Продюсер: Пітер Чернін, Тед Мелфі, Фред Росс-Світова прем'єра: 5 вересня 2014
    Обмеження за віком: немає- -Актори: Біл Мюрей, Меліса МаКарті, Наомі Вотс, Кріс О’Дауд, Теренс Говард-Сюжет: Фільм про 12-літнього хлопчика, який, переживаючи розлучення своїх батьків. Він починає дружити з літнім сусідом, ветераном війни, п’яницею, який любить азартні ігри та повій. Цей геть не ідеальний та кумедний чоловік стає наставником хлопчика.-Формат: AVI
    Якість: BDRip
    Відео кодек: XviD
    Відео: 720x384 (1,85:1), 1573 kbps, 23.976 fps, 0.237 bit/pixel
    Аудіо: AC3, 48 kHz, 6 ch, 448 kbps-Джерело:

    MediaInfo

    Общее
    Полное имя                               : \St. Vincent (2014) [ukr] BDRip [Hurtom].avi
    Формат                                   : AVI
    Формат/Информация                        : Audio Video Interleave
    Размер файла                             : 1,45 Гбайт
    Продолжительность                        : 1 ч. 42 м.
    Общий поток                              : 2030 Кбит/сек
    Название фильма                          : Святий Вінсент / St. Vincent (2014) [Hurtom]
    Режиссёр                                 : hurtom.com
    Тема                                     : Озвучено на замовлення hurtom.com
    Программа кодирования                    : VirtualDubMod 1.5.10.2 (build 2540/release)
    Библиотека кодирования                   : VirtualDubMod build 2540/release
    Примечание                               : Особлива подяка: 21jumpstreet, 4eburek, a, abat.andrew, accidentmeeting, ahilbaca, Alex_Korn, Alien8, Alisa_Ortega, an7777777777777, Anatoly136UA, and2003, anthonybsd, aonyshchenko, AS, Avsel, bambulla, basic, bogdan8249, Borysfen, cancer, chebrec', chuvak_9404, d_hubych, Dars, deepfree, deviator, DiD19, dim1, dimaandr, dimon387, don pedro, Drevlen, duran, evshan, FermerLV, fesiuk, flowerina, freddycryger, galine@, genauk, gereley, GingerB, Golota, goo3, Gravitator1992, Gxost, horizzzont, hutei, igor911, ihor72, Infoserfer, ING303, Iva543, ivan vyrvyvuho, jandrus, JoaJoa16, jorgh, karvai0, Katonik, Kindijka, Klen-Yavir, kosmo.ua, kucher, Kysly, LandOfWar, leonidovod, leroykendall, ludens, lutsko_k, makstur, maxun, melvika, Milvus, molostov, morg, Mustafa, navivokasyl / NeetScrool, NemoInFire, nemos, NewArtMask, niagars, Nikson, nimrodel, oksana, olaz, olegcvua, olekss22, oleshko77, olexaboss, Olezhamen , opryshok76, OviniX, pai1ripe, pesko, petrokhm, piskl, pit09, renday, romantomchak, Romczyk, Romdoc, RST, ru-1983, rudchenkos, rudser, Ruslan, san4ester, sanya7901, sash_ok, sashamal69, saur, Sehrg-Gut, Sepoolka, sergunik, serzholino, shakhtar3000, shtein, SigaUA, skuline, slava_4, slawikpol, slvnd, Snuryus, spring_girl, St.Bogush, swinomatka, tarasyk13, tartess, Teren, Tetiana, Thaddeus, timoha, turba, urshula, V_P_Staryk, Valikot, vdima82, vecchio, VeroNikakastro, veto, vifilo, VinnOl, vovan2000, Vseslav, W3RWOLF, webschik, Wivern, wolesj, www2702, xfsthe, Yar Norega, yarik_ratnik, zaika, голуб, Киянин, Леді22, Павло, Янко Гортало
    Видео
    Идентификатор                            : 0
    Формат                                   : MPEG-4 Visual
    Профиль формата                          : Advanced Simple@L5
    Параметр BVOP формата                    : 1
    Параметр QPel формата                    : Нет
    Параметр GMC формата                     : Без точки перехода
    Параметр матрицы формата                 : Default (MPEG)
    Идентификатор кодека                     : XVID
    Идентификатор кодека/Подсказка           : XviD
    Продолжительность                        : 1 ч. 42 м.
    Битрейт                                  : 1573 Кбит/сек
    Ширина                                   : 720 пикселей
    Высота                                   : 384 пикселя
    Соотношение сторон                       : 1,85:1
    Частота кадров                           : 23,976 кадра/сек
    Цветовое пространство                    : YUV
    Субдискретизация насыщенности            : 4:2:0
    Битовая глубина                          : 8 бит
    Тип развёртки                            : Прогрессивная
    Метод сжатия                             : С потерями
    Бит/(Пиксели*Кадры)                      : 0.237
    Размер потока                            : 1,13 Гбайт (77%)
    Библиотека кодирования                   : XviD 73
    Аудио
    Идентификатор                            : 1
    Формат                                   : AC-3
    Формат/Информация                        : Audio Coding 3
    Расширение режима                        : CM (complete main)
    Параметр Endianness формата              : Big
    Идентификатор кодека                     : 2000
    Продолжительность                        : 1 ч. 42 м.
    Вид битрейта                             : Постоянный
    Битрейт                                  : 448 Кбит/сек
    Каналы                                   : 6 каналов
    Расположение каналов                     : Front: L C R, Side: L R, LFE
    Частота                                  : 48,0 КГц
    Битовая глубина                          : 16 бит
    Метод сжатия                             : С потерями
    Размер потока                            : 328 Мбайт (22%)
    Выравнивание                             : Разделение по промежуткам
    Продолжительность промежутка             : 42  мс. (1,00 видеокадр)
    Время предзагрузки промежутка            : 500  мс.

    Скріншоти

    Скачать .torrent

    Скачать торрент-файл бесплатно и на максимальной скорости!

    Как скачивать? · Что такое торрент? · Рейтинг и ограничения

    !ВНИМАНИЕ!
    Сайт не распространяет и не хранит электронные версии произведений, а занимается лишь лишь предоставлением доступа к создаваемому пользователями каталогу ссылок на торрент-файлы, которые содержат только списки хеш-сумм, убедительная просьба с жалобами обращаться напрямую к пользователю. Файлы для обмена на трекере предоставлены пользователями сайта, и администрация не несёт ответственности за их содержание. Просьба не заливать файлы, защищенные авторскими правами, а также файлы нелегального содержания!


    _________________
    [Профиль] [ЛС]

    -746

    Создавать темы 03-Июн-2016 21:40 (спустя 6 месяцев)

           

    Топік був перенесений з форуму Закордонне кіно українською у форум Фільми 2011-2015 українською

    rechyn

    _________________
    Как бы ты высоко не летал, не забывай, с кем ты ползал..
     
    Показать сообщения:    
    Ответить на тему

    Текущее время: Сегодня, в 22:18

    Часовой пояс: GMT + 2



    Вы не можете начинать темы
    Вы не можете отвечать на сообщения
    Вы не можете редактировать свои сообщения
    Вы не можете удалять свои сообщения
    Вы не можете голосовать в опросах
    Вы не можете прикреплять файлы к сообщениям
    Вы не можете скачивать файлы