BitTorrentTracker PerecTracker.org
BitTorrentTracker PerecTracker.org
    
Регистрация  ·  Вход
 
 · 
Забыли пароль?

  • Семейство Белье / La famille Belier (Эрик Лартиго / Eric Lartigau) [2014, Франция, Бельгия, драма, комедия, музыка, HDRip] AVO (А. Алексеев) + Original Fre

    Ответить на тему
     
    Автор Сообщение

    Light

    Создавать темы 03-Дек-2015 12:35

           

    [Цитировать]

    Семейство Белье / La famille BélierСтрана: Франция , Бельгия
    Жанр: драма, комедия, музыка
    Год выпуска: 2014
    Продолжительность: 01:45:21
    Перевод: Авторский (одноголосый закадровый) - А. Алексеев
    Cубтитры: нет
    Оригинальная аудиодорожка: французская
    Режиссер: Эрик Лартиго / Eric Lartigau
    В ролях: Карин Вьяр, Франсуа Дамиенс, Эрик Элмоснино, Луан Эмера, Роксана Дюран, Илиян Бергаля, Люка Жельбер, Мар Содуп, Стефан Войтович, Жером Киршер.
    Описание: В семействе Белье все глухие, кроме 16-летней Полы. Она является незаменимым переводчиком для родителей в повседневной работе на их ферме и при продаже их домашних сыров на рынке. Однажды, вдохновленная своим преподавателем музыки, который открыл в ней вокальный талант, Пола решает начать подготовку к прослушиванию для вокального курса, проходящего на французском радио в Париже. Однако этот выбор означает, что она должна покинуть свою семью, чтобы сделать свои первые шаги во взрослую жизнь.

    Доп. информация:
    Исходник - BDRip 720p из раздачи NeйmarJR
    Конвертация видео - Arle-kino

    Качество видео: HDRip
    Формат видео: AVI
    Видео: 720x400 (1.80:1), 23.976 fps, XviD build 50 ~1581 kbps avg, 0.23 bit/pixel
    Аудио 1: 48 kHz, AC3 Dolby Digital, 2/0 (L,R) ch, ~192 kbps - Rus - Alekseev
    Аудио 2: 48 kHz, AC3 Dolby Digital, 2/0 (L,R) ch, ~192 kbps - Fra

    MediaInfo

    General
    Complete name : D:\Public\La.famille.Belier.(2014).HDRip.Rus.(Alekseev)-Fra.avi
    Format : AVI
    Format/Info : Audio Video Interleave
    File size : 1.46 GiB
    Duration : 1h 45mn
    Overall bit rate : 1 980 Kbps
    Writing application : VirtualDubMod 1.5.10.2 (build 2542/release)
    Writing library : VirtualDubMod build 2542/release
    Video
    ID : 0
    Format : MPEG-4 Visual
    Format profile : Advanced Simple@L5
    Format settings, BVOP : 1
    Format settings, QPel : No
    Format settings, GMC : No warppoints
    Format settings, Matrix : Default (MPEG)
    Codec ID : XVID
    Codec ID/Hint : XviD
    Duration : 1h 45mn
    Bit rate : 1 582 Kbps
    Width : 720 pixels
    Height : 400 pixels
    Display aspect ratio : 16:9
    Frame rate : 23.976 fps
    Color space : YUV
    Chroma subsampling : 4:2:0
    Bit depth : 8 bits
    Scan type : Progressive
    Compression mode : Lossy
    Bits/(Pixel*Frame) : 0.229
    Stream size : 1.16 GiB (80%)
    Writing library : XviD 1.2.1 (UTC 2008-12-04)
    Audio #1
    ID : 1
    Format : AC-3
    Format/Info : Audio Coding 3
    Mode extension : CM (complete main)
    Codec ID : 2000
    Duration : 1h 45mn
    Bit rate mode : Constant
    Bit rate : 192 Kbps
    Channel(s) : 2 channels
    Channel positions : Front: L R
    Sampling rate : 48.0 KHz
    Bit depth : 16 bits
    Compression mode : Lossy
    Stream size : 145 MiB (10%)
    Alignment : Split accross interleaves
    Interleave, duration : 42 ms (1.00 video frame)
    Interleave, preload duration : 500 ms
    Title : Rus - Alekseev
    Audio #2
    ID : 2
    Format : AC-3
    Format/Info : Audio Coding 3
    Mode extension : CM (complete main)
    Codec ID : 2000
    Duration : 1h 45mn
    Bit rate mode : Constant
    Bit rate : 192 Kbps
    Channel(s) : 2 channels
    Channel positions : Front: L R
    Sampling rate : 48.0 KHz
    Bit depth : 16 bits
    Compression mode : Lossy
    Stream size : 145 MiB (10%)
    Alignment : Split accross interleaves
    Interleave, duration : 42 ms (1.00 video frame)
    Interleave, preload duration : 500 ms
    Title : Fra

    Скриншот c названием фильма

    Скриншоты

    Скачать .torrent

    Скачать торрент-файл бесплатно и на максимальной скорости!

    Как скачивать? · Что такое торрент? · Рейтинг и ограничения

    !ВНИМАНИЕ!
    Сайт не распространяет и не хранит электронные версии произведений, а занимается лишь лишь предоставлением доступа к создаваемому пользователями каталогу ссылок на торрент-файлы, которые содержат только списки хеш-сумм, убедительная просьба с жалобами обращаться напрямую к пользователю. Файлы для обмена на трекере предоставлены пользователями сайта, и администрация не несёт ответственности за их содержание. Просьба не заливать файлы, защищенные авторскими правами, а также файлы нелегального содержания!


    _________________
    [Профиль] [ЛС]
    Показать сообщения:    
    Ответить на тему

    Текущее время: Сегодня, в 12:03

    Часовой пояс: GMT + 2



    Вы не можете начинать темы
    Вы не можете отвечать на сообщения
    Вы не можете редактировать свои сообщения
    Вы не можете удалять свои сообщения
    Вы не можете голосовать в опросах
    Вы не можете прикреплять файлы к сообщениям
    Вы не можете скачивать файлы