BitTorrentTracker PerecTracker.org
BitTorrentTracker PerecTracker.org
    
Регистрация  ·  Вход
 
 · 
Забыли пароль?

  • Родина (Петр Буслов) [2015, драма, триллер, WEB-DLRip]

    Ответить на тему
     
    Автор Сообщение

    rechyn

    Создавать темы 03-Дек-2015 00:14

           

    [Цитировать]

    РодинаЖанр: драма, триллер
    Год выпуска: 2015
    Продолжительность: 02:04:38
    Режиссёр: Петр Буслов
    В ролях: Андрей Смоляков,Пётр Фёдоров,Любовь Аксенова,Павел Личникофф,Екатерина Волкова,Сергей Бадюк,Андрей Мерзликин,Кирилл Кяро,Александр Робак,Максим Лагашкин
    Описание: Здесь ночи слепят огнями рейвов, дни баюкают шумом волн, песок похож на золото, деньги — просто бумага, живи и не тужи, а если совсем повезет, встретишь Бога. Здесь — это Индия, Гоа, куда люди со всего мира отправляются, чтобы найти или потерять себя.
    Ева, дочь богатого русского, попадает сюда не по своей воле — отец психанул и высадил ночью из частного самолёта на первой подвернувшейся полосе. Когда отец одумался, девушку уже увлёк лабиринт человеческих судеб. Здесь новосибирский парень Макар жадно ищет просветления — до конца отпуска остался один день. Здесь Алексей и Кристина прощаются с семейным счастьем, а мелкие бесы на байках Димон и Леня испытывают мир на прочность. Здесь Гуру (только не надо его так называть!) Космос дарит препараты, сокращающие путь в другую реальность до одного щелчка. Здесь разные судьбы. Разные люди. Но у всех одна Родина. Не любить которую легко, когда она рядом.
    Сэмпл: http://multi-up.com/1074811
    Качество видео: WEB-DLRip
    Формат видео: AVI
    Видео: 720x304 (2.37:1), 24 fps, XviD build 50 ~1284 kbps avg, 0.24 bit/pixel
    Аудио: 48 kHz, AC3 Dolby Digital, 3/2 (L,C,R,l,r) + LFE ch, ~384 kbps

    MediaInfo

    Video
    ID : 0
    Format : MPEG-4 Visual
    Format profile : Advanced Simple@L5
    Format settings, BVOP : 2
    Format settings, QPel : No
    Format settings, GMC : No warppoints
    Format settings, Matrix : Default (MPEG)
    Codec ID : XVID
    Codec ID/Hint : XviD
    Duration : 2h 4mn
    Bit rate : 1 285 Kbps
    Width : 720 pixels
    Height : 304 pixels
    Display aspect ratio : 2.35:1
    Frame rate : 24.000 fps
    Color space : YUV
    Chroma subsampling : 4:2:0
    Bit depth : 8 bits
    Scan type : Progressive
    Compression mode : Lossy
    Bits/(Pixel*Frame) : 0.245
    Stream size : 1.12 GiB (77%)
    Writing library : XviD 1.2.1 (UTC 2008-12-04)
    Audio
    ID : 1
    Format : AC-3
    Format/Info : Audio Coding 3
    Mode extension : CM (complete main)
    Format settings, Endianness : Big
    Codec ID : 2000
    Duration : 2h 4mn
    Bit rate mode : Constant
    Bit rate : 384 Kbps
    Channel(s) : 6 channels
    Channel positions : Front: L C R, Side: L R, LFE
    Sampling rate : 48.0 KHz
    Bit depth : 16 bits
    Compression mode : Lossy
    Stream size : 342 MiB (23%)
    Alignment : Split accross interleaves
    Interleave, duration : 42 ms (1.00 video frame)
    Interleave, preload duration : 500 ms

    Скриншот c названием фильма

    Скриншоты

    Скачать .torrent

    Скачать торрент-файл бесплатно и на максимальной скорости!

    Как скачивать? · Что такое торрент? · Рейтинг и ограничения

    !ВНИМАНИЕ!
    Сайт не распространяет и не хранит электронные версии произведений, а занимается лишь лишь предоставлением доступа к создаваемому пользователями каталогу ссылок на торрент-файлы, которые содержат только списки хеш-сумм, убедительная просьба с жалобами обращаться напрямую к пользователю. Файлы для обмена на трекере предоставлены пользователями сайта, и администрация не несёт ответственности за их содержание. Просьба не заливать файлы, защищенные авторскими правами, а также файлы нелегального содержания!


    _________________
    [Профиль] [ЛС]
    Показать сообщения:    
    Ответить на тему

    Текущее время: Сегодня, в 02:54

    Часовой пояс: GMT + 2



    Вы не можете начинать темы
    Вы не можете отвечать на сообщения
    Вы не можете редактировать свои сообщения
    Вы не можете удалять свои сообщения
    Вы не можете голосовать в опросах
    Вы не можете прикреплять файлы к сообщениям
    Вы не можете скачивать файлы