BitTorrentTracker PerecTracker.org
BitTorrentTracker PerecTracker.org
    
Регистрация  ·  Вход
 
 · 
Забыли пароль?

  • Ласковый май (Владимир Виноградов) [2009, драма, музыкальный, биография, BDRip]

    Ответить на тему
     
    Автор Сообщение

    rechyn

    Создавать темы 03-Дек-2015 00:14

           

    [Цитировать]

    Ласковый май
    Жанр: Драма, музыкальный, биография
    Год выпуска: 2009
    Продолжительность: 01:54:48
    Режиссёр: Владимир Виноградов
    В ролях: Вячеслав Манучаров, Сергей Романович, Дмитрий Блохин, Виктор Вержбицкий, Людмила Зайцева, Раиса Конюхова, Максим Костромыкин, Максим Литовченко, Виктория Матвеева, Инга Оболдина, Марина Орел, Раиса Рязанова, Пётр Скворцов, Владимир Стеклов, Екатерина Федулова, Данила Чванов, Иван Агапов, Екатерина Садовская, Ольга Турутина, Александр Фисенко, Александр Нехороших, Виктор Бунаков
    Описание: В 1985 году в Советском Союзе началась перестройка и появилась группа "Ласковый май". На их концертах были только аншлаги, от неразделённой любви к ним совершались самоубийства. Фигура Михаила Горбачёва меркла в лучах славы создателя "Ласкового мая" - Андрея Разина. Случайно сделанная фотография на пляже, где Андрей Разин, будучи ребенком, запечатлён с семьей Горбачёвых, перевернула его судьбу. Именно с помощью этой фотографии он стал племянником Горбачёва. Он заявил об этом не напрямую - так, намекнул, и ему мгновенно поверили. Функционеры всех рангов действовали без промедления: перед ним распахнулись двери телевидения и радио, советская эстрада легла к его ногам. Разин ездил по всем детским домам Советского Союза в поисках одарённых детей для своих групп-двойников. "Ласковый май" гастролировал одновременно в нескольких городах, давая в день по 5-6 концертов. За все десять лет существования группы не было ни одного не проданного или сданного билета, каждый пятый житель СССР побывал на их концертах. Прошло время, ушёл Горбачёв, развалился Советский Союз, закончилась эпоха "Ласкового мая", но до сих пор, под современные аранжировки их песен, зажигают на дискотеках современные тинэйджеры...
    Доп. информация:
    Сэмпл: http://multi-up.com/1066156
    Исходник: http://perectracker.org/viewtopic.php?t=4682794
    Формат видео: AVI
    Качество видео: BDRip (Blu-ray)
    Видео: XviD, 688х384, 24fps, 1355kbps
    Аудио: AC3 Dolby Digital, 6ch, 48000Hz, 448kbps

    MediaInfo

    General
    Complete name : Laskovyi.Mai.2009.O.BDRip.1400.CurHaJI.avi
    Format : AVI
    Format/Info : Audio Video Interleave
    File size : 1.45 GiB
    Duration : 1h 54mn
    Overall bit rate : 1 813 Kbps
    Movie name : Laskovyi.Mai.2009.O.BDRip.1400.CurHaJI
    Writing application : Lavf53.13.0
    Writing library : VirtualDub build 35491/release
    Video
    ID : 0
    Format : MPEG-4 Visual
    Format profile : Advanced Simple@L5
    Format settings, BVOP : 2
    Format settings, QPel : No
    Format settings, GMC : No warppoints
    Format settings, Matrix : Custom
    Codec ID : XVID
    Codec ID/Hint : XviD
    Duration : 1h 54mn
    Bit rate : 1 355 Kbps
    Width : 688 pixels
    Height : 384 pixels
    Display aspect ratio : 16:9
    Frame rate : 24.000 fps
    Color space : YUV
    Chroma subsampling : 4:2:0
    Bit depth : 8 bits
    Scan type : Progressive
    Compression mode : Lossy
    Bits/(Pixel*Frame) : 0.214
    Stream size : 1.09 GiB (75%)
    Writing library : XviD 64
    Audio
    ID : 1
    Format : AC-3
    Format/Info : Audio Coding 3
    Mode extension : CM (complete main)
    Format settings, Endianness : Big
    Codec ID : 2000
    Duration : 1h 54mn
    Bit rate mode : Constant
    Bit rate : 448 Kbps
    Channel(s) : 6 channels
    Channel positions : Front: L C R, Side: L R, LFE
    Sampling rate : 48.0 KHz
    Bit depth : 16 bits
    Compression mode : Lossy
    Stream size : 368 MiB (25%)
    Alignment : Aligned on interleaves
    Interleave, duration : 42 ms (1.00 video frame)
    Interleave, preload duration : 512 ms

    Скриншоты

    Скачать .torrent

    Скачать торрент-файл бесплатно и на максимальной скорости!

    Как скачивать? · Что такое торрент? · Рейтинг и ограничения

    !ВНИМАНИЕ!
    Сайт не распространяет и не хранит электронные версии произведений, а занимается лишь лишь предоставлением доступа к создаваемому пользователями каталогу ссылок на торрент-файлы, которые содержат только списки хеш-сумм, убедительная просьба с жалобами обращаться напрямую к пользователю. Файлы для обмена на трекере предоставлены пользователями сайта, и администрация не несёт ответственности за их содержание. Просьба не заливать файлы, защищенные авторскими правами, а также файлы нелегального содержания!


    _________________
    [Профиль] [ЛС]
    Показать сообщения:    
    Ответить на тему

    Текущее время: Сегодня, в 08:49

    Часовой пояс: GMT + 2



    Вы не можете начинать темы
    Вы не можете отвечать на сообщения
    Вы не можете редактировать свои сообщения
    Вы не можете удалять свои сообщения
    Вы не можете голосовать в опросах
    Вы не можете прикреплять файлы к сообщениям
    Вы не можете скачивать файлы