BitTorrentTracker PerecTracker.org
BitTorrentTracker PerecTracker.org
    
Регистрация  ·  Вход
 
 · 
Забыли пароль?

  • Любовь под надзором (Владимир Шевельков) [2007, Телефильм, мелодрама, TVRip]

    Ответить на тему
     
    Автор Сообщение

    rechyn

    Создавать темы 03-Дек-2015 00:14

           

    [Цитировать]

    Любовь под надзором
    Жанр: Телефильм, мелодрама
    Год выпуска: 2007
    Продолжительность: 01:30:41
    Режиссёр: Владимир Шевельков
    Актёры: Наталья Шамина, Владимир Шевельков, Сергей Паршин, Наталья Кутасова, Александр Сластин, Ольга Самошина, Оксана Базилевич, Любовь Виролайнен, Андрей Кузнецов, Артур Ваха, Валентина Панина, Валентина Егоренкова, Алексей Фалилеев, Александр Алексеев, и др.
    Аннотация: Главной героине не повезло... Перед свадьбой она узнаёт, что будущий муж проводит время с блудницей - свадьбы не будет... На работе к ней относятся как к бессловесной рабочей скотине - с работы пришлось уйти... Неприятности продолжают сыпаться в кучу, куча разрастается как снежный ком - главная героиня неожиданно попадает в ловко расставленные сети насильников... И в добавок ко всему, все кому не лень, лезут и лезут к ней со своими советами - не смотря на то, что главная героиня советов не спрашивала. Первое место в раздаче советов завоевали родители, и в словесных сражениях завоёванных позиций сдавать не хотят, претендуя на абсолютное лидерство, не дают дочери слова вставить - ведь только они знают, что и как ей нужно... Жизнь закончилась, думает главная героиня, и предпринимает попытку суицида - в результате чего оказывается в психиатрической больнице...
    Дополнительная информация: На изображении присутствует логотип телеканала.

    Качество видео: TVRip
    Формат видео: AVI
    Видео: 720x416 (1.73:1), 25 fps, XviD build 47 ~1893 kbps avg, 0.25 bit/pixel
    Аудио: 48 kHz, AC3 Dolby Digital, 2/0 (L,R) ch, ~256 kbps

    AviInfo

    File: Любовь_под_надзором_2007_TVRip_[perectracker.org].aviFilesize: 1398.44 Mb ( 1 466 374 144 bytes )Play length: 01:30:41.640 (136041 frames)Subtitles: Not PresentVideo: 720x416 (1.73:1), 25 fps, XviD build 47 ~1893 kbps avg, 0.25 bit/pixelAudio: 48 kHz, AC3 Dolby Digital, 2/0 (L,R) ch, ~256 kbps

    MediaInfo

    ОбщееПолное имя : S:\Любовь_под_надзором_2007_TVRip_[perectracker.org].aviФормат : AVIФормат/Информация : Audio Video InterleaveРазмер файла : 1,37 ГбайтПродолжительность : 1 ч. 30 м.Общий поток : 2156 Кбит/секПрограмма кодирования : VirtualDubMod 1.5.4.1 (build 2178/release)Библиотека кодирования : VirtualDubMod build 2178/release
    ВидеоИдентификатор : 0Формат : MPEG-4 VisualПрофиль формата : Advanced Simple@L5Параметр BVOP формата : НетПараметр QPel формата : НетПараметр GMC формата : Без точки переходаПараметр матрицы формата : ВыборочнаяИдентификатор кодека : XVIDИдентификатор кодека/Подсказка : XviDПродолжительность : 1 ч. 30 м.Битрейт : 1893 Кбит/секШирина : 720 пикселейВысота : 416 пикселейСоотношение сторон : 1,731Частота кадров : 25,000 кадров/секЦветовое пространство : YUVСубдискретизация насыщенности : 4:2:0Битовая глубина : 8 битТип развёртки : ПрогрессивнаяМетод сжатия : С потерямиБит/(Пиксели*Кадры) : 0.253Размер потока : 1,20 Гбайт (88%)Библиотека кодирования : XviD 1.2.0.dev47 (UTC 2006-11-01)
    АудиоИдентификатор : 1Формат : AC-3Формат/Информация : Audio Coding 3Расширение режима : CM (complete main)Параметр Endianness формата : BigИдентификатор кодека : 2000Продолжительность : 1 ч. 30 м.Вид битрейта : ПостоянныйБитрейт : 256 Кбит/секКаналы : 2 каналаРасположение каналов : Front: L RЧастота : 48,0 КГцБитовая глубина : 16 битМетод сжатия : С потерямиЗадержка видео : 16 мс.Размер потока : 166 Мбайт (12%)Выравнивание : Разделение по промежуткамПродолжительность промежутка : 96 мс. (2,40 видеокадра)Время предзагрузки промежутка : 96 мс.

    Скриншот c названием фильма

    Скриншоты

    Время раздачи - по возможности.
    Скачать .torrent

    Скачать торрент-файл бесплатно и на максимальной скорости!

    Как скачивать? · Что такое торрент? · Рейтинг и ограничения

    !ВНИМАНИЕ!
    Сайт не распространяет и не хранит электронные версии произведений, а занимается лишь лишь предоставлением доступа к создаваемому пользователями каталогу ссылок на торрент-файлы, которые содержат только списки хеш-сумм, убедительная просьба с жалобами обращаться напрямую к пользователю. Файлы для обмена на трекере предоставлены пользователями сайта, и администрация не несёт ответственности за их содержание. Просьба не заливать файлы, защищенные авторскими правами, а также файлы нелегального содержания!


    _________________
    [Профиль] [ЛС]
    Показать сообщения:    
    Ответить на тему

    Текущее время: Сегодня, в 06:09

    Часовой пояс: GMT + 2



    Вы не можете начинать темы
    Вы не можете отвечать на сообщения
    Вы не можете редактировать свои сообщения
    Вы не можете удалять свои сообщения
    Вы не можете голосовать в опросах
    Вы не можете прикреплять файлы к сообщениям
    Вы не можете скачивать файлы