BitTorrentTracker PerecTracker.org
BitTorrentTracker PerecTracker.org
    
Регистрация  ·  Вход
 
 · 
Забыли пароль?

  • Кавказская пленница! (Максим Воронков) [2014, Комедия, WEB-DLRip]

    Ответить на тему
     
    Автор Сообщение

    rechyn

    Создавать темы 03-Дек-2015 00:14

           

    [Цитировать]

    Кавказская пленница!-Страна: Россия
    Студия: Продюсерский центр «Ильи Олейникова»
    Жанр: Комедия
    Год выпуска: 2014
    Продолжительность: 01:35:35-Режиссер: Максим Воронков-В ролях: : Дмитрий Шаракоис, Анастасия Задорожная, Геннадий Хазанов, Арарат Кещян, Семён Стругачев, Сергей Степанченко, Николай Добрынин, Михаил Ефремов, Юлий Гусман, Лариса Удовиченко-Описание: Журналист Шурик приезжает на Кавказ, чтобы снять репортаж о местных красотах и традициях, и попадает в Горск, вотчину местного мэра города Георгия Гаджиевича Саахова. Тот, поддерживая моду, заданную губернатором, задумал жениться на молоденькой красавице, спортсменке и даже экстремалке Нине, которая так понравилась Шурику. Используя незадачливого журналиста, Саахов и его подручные похищают Нину. Но, поняв, что его разыграли, Шурик бросается спасать любимую девушку…-Доп. информация:

    Автор рипа: MECHANICAL ENGINEER-Качество: WEB-DLRip
    Формат: AVI
    Видео: 720x304 (2.37:1), 24 fps, XviD build 65 ~1784 kbps avg, 0.34 bit/pixel
    Аудио: 48 kHz, AC3 Dolby Digital, 3/2 (L,C,R,l,r) + LFE ch, ~384.00 kbps avg
    Размер: 1488.98 Mb (1/3 DVD5)

    Скриншоты fastpic :





    MediaInfo

    Format                                   : AVI
    Format/Info                              : Audio Video Interleave
    File size                                : 1.45 GiB
    Duration                                 : 1h 35mn
    Overall bit rate                         : 2 178 Kbps
    Movie name                               : Кавказская пленница! (2014)
    Director                                 : MECHANICAL ENGINEER (WEB-DL 1080p)
    Genre                                    : Comedy
    Writing application                      : VirtualDubMod 1.5.10.3 | www.virtualdub-fr.org || (build 2550/release)
    Copyright                                : Россия
    Comment                                  : 01:12:2015
    Video
    ID                                       : 0
    Format                                   : MPEG-4 Visual
    Format profile                           : Advanced Simple@L5
    Format settings, BVOP                    : 1
    Format settings, QPel                    : No
    Format settings, GMC                     : No warppoints
    Format settings, Matrix                  : Custom
    Codec ID                                 : XVID
    Codec ID/Hint                            : XviD
    Duration                                 : 1h 35mn
    Bit rate                                 : 1 785 Kbps
    Width                                    : 720 pixels
    Height                                   : 304 pixels
    Display aspect ratio                     : 2.35:1
    Frame rate                               : 24.000 fps
    Color space                              : YUV
    Chroma subsampling                       : 4:2:0
    Bit depth                                : 8 bits
    Scan type                                : Progressive
    Compression mode                         : Lossy
    Bits/(Pixel*Frame)                       : 0.340
    Stream size                              : 1.19 GiB (82%)
    Writing library                          : XviD 65
    Audio
    ID                                       : 1
    Format                                   : AC-3
    Format/Info                              : Audio Coding 3
    Mode extension                           : CM (complete main)
    Codec ID                                 : 2000
    Duration                                 : 1h 35mn
    Bit rate mode                            : Constant
    Bit rate                                 : 384 Kbps
    Channel(s)                               : 6 channels
    Channel positions                        : Front: L C R, Side: L R, LFE
    Sampling rate                            : 48.0 KHz
    Bit depth                                : 16 bits
    Compression mode                         : Lossy
    Stream size                              : 263 MiB (18%)
    Alignment                                : Split accross interleaves
    Interleave, duration                     : 42 ms (1.00 video frame)
    Interleave, preload duration             : 500 ms
    ПРИЯТНОГО ПРОСМОТРА!
    Скачать .torrent

    Скачать торрент-файл бесплатно и на максимальной скорости!

    Как скачивать? · Что такое торрент? · Рейтинг и ограничения

    !ВНИМАНИЕ!
    Сайт не распространяет и не хранит электронные версии произведений, а занимается лишь лишь предоставлением доступа к создаваемому пользователями каталогу ссылок на торрент-файлы, которые содержат только списки хеш-сумм, убедительная просьба с жалобами обращаться напрямую к пользователю. Файлы для обмена на трекере предоставлены пользователями сайта, и администрация не несёт ответственности за их содержание. Просьба не заливать файлы, защищенные авторскими правами, а также файлы нелегального содержания!


    _________________
    [Профиль] [ЛС]
    Показать сообщения:    
    Ответить на тему

    Текущее время: Сегодня, в 04:59

    Часовой пояс: GMT + 2



    Вы не можете начинать темы
    Вы не можете отвечать на сообщения
    Вы не можете редактировать свои сообщения
    Вы не можете удалять свои сообщения
    Вы не можете голосовать в опросах
    Вы не можете прикреплять файлы к сообщениям
    Вы не можете скачивать файлы