BitTorrentTracker PerecTracker.org
BitTorrentTracker PerecTracker.org
    
Регистрация  ·  Вход
 
 · 
Забыли пароль?

  • Верьте мне, люди (Владимир Беренштейн, Илья Гурин, Леонид Луков) [1964, драма, экранизация, DVB]

    Ответить на тему
     
    Автор Сообщение

    Light

    Создавать темы 03-Дек-2015 00:13

           

    [Цитировать]

    Верьте мне, люди
    08.11.15 торрент обновлён, сегодня "Культура" транслировала с бОльшм битрейтом (5200 против 3000), заменил запись.
    Жанр: драма, экранизация
    Год выпуска: 1964
    Продолжительность: 01:45:12
    Режиссёры: Владимир Беренштейн, Илья Гурин, Леонид Луков
    В ролях: Кирилл Лавров, Владимир Самойлов, Ирина Бунина, Станислав Чекан, Всеволод Кузнецов, Сергей Плотников, Леонид Реутов, Оксана Левинсон, Владимир Смирнов, Владимир Атлантов, Валентина Беляева, Виктор Борцов, Кирилл Гунн, Евгений Евстигнеев, Александр Орлов, Дмитрий Орловский, Николай Парфёнов, Иван Рыжов, Аркадий Трусов, Гликерия Богданова-Чеснокова, Галина Карева, Константин Малахов, Катя Салимжанова, Игорь Боголюбов, Владимир Липпарт, Лидия Королёва
    Описание: По мотивам романа Юрия Германа "Один год".
    В 1937 году у Алексея были арестованы как "враги народа" отец и мать. Мальчика отдали в детдом...
    Доп. информация: Запись потока *.ts со спутника Экспресс АМ7, 40° в.д., ремукс в *.mkv программой VideoReDo.
    Постер из коллекции советских киноплакатов коллеги tokarevamarina.
    Качество видео: DVB
    Формат видео: MKV
    Видео: MPEG Video, 720(768)x576 (4:3), 25,000 кадров/сек, 5249 Кбит/сек
    Аудио: MPEG Audio, 48,0 КГц, 256 Кбит/сек, 2 канала

    MediaInfo

    General
    Unique ID : 233117559293485330071724370864632102044 (0xAF60CF0D8E03F1D9CB4D0FE65C05FC9C)
    Complete name : D:\MPG\ВЕРЬТЕ МНЕ ЛЮДИ (Kultura 40).mkv
    Format : Matroska
    Format version : Version 2
    File size : 4.13 GiB
    Duration : 1h 45mn
    Overall bit rate mode : Variable
    Overall bit rate : 5 620 Kbps
    Writing application : Lavf52.64.2
    Writing library : Lavf52.64.2
    Video
    ID : 1
    Format : MPEG Video
    Format version : Version 2
    Format profile : Main@Main
    Format settings, BVOP : No
    Format settings, Matrix : Custom
    Codec ID : V_MPEG2
    Codec ID/Info : MPEG 1 or 2 Video
    Duration : 1h 45mn
    Bit rate mode : Variable
    Bit rate : 5 252 Kbps
    Maximum bit rate : 15.0 Mbps
    Width : 720 pixels
    Height : 576 pixels
    Display aspect ratio : 4:3
    Original display aspect ratio : 4:3
    Frame rate mode : Constant
    Frame rate : 25.000 fps
    Standard : PAL
    Color space : YUV
    Chroma subsampling : 4:2:0
    Bit depth : 8 bits
    Scan type : Interlaced
    Scan order : Top Field First
    Compression mode : Lossy
    Bits/(Pixel*Frame) : 0.507
    Time code of first frame : 00:00:00:00
    Time code source : Group of pictures header
    Stream size : 3.86 GiB (93%)
    Default : Yes
    Forced : No
    Audio
    ID : 2
    Format : MPEG Audio
    Format version : Version 1
    Format profile : Layer 2
    Codec ID : A_MPEG/L2
    Codec ID/Hint : MP2
    Duration : 1h 45mn
    Bit rate mode : Constant
    Bit rate : 256 Kbps
    Channel count : 2 channels
    Sampling rate : 48.0 KHz
    Compression mode : Lossy
    Delay relative to video : -1mn 5s
    Stream size : 193 MiB (5%)
    Language : English
    Default : Yes
    Forced : No

    Ещё постеры

    Скриншоты

    Скачать .torrent

    Скачать торрент-файл бесплатно и на максимальной скорости!

    Как скачивать? · Что такое торрент? · Рейтинг и ограничения

    !ВНИМАНИЕ!
    Сайт не распространяет и не хранит электронные версии произведений, а занимается лишь лишь предоставлением доступа к создаваемому пользователями каталогу ссылок на торрент-файлы, которые содержат только списки хеш-сумм, убедительная просьба с жалобами обращаться напрямую к пользователю. Файлы для обмена на трекере предоставлены пользователями сайта, и администрация не несёт ответственности за их содержание. Просьба не заливать файлы, защищенные авторскими правами, а также файлы нелегального содержания!


    _________________
    [Профиль] [ЛС]
    Показать сообщения:    
    Ответить на тему

    Текущее время: Сегодня, в 04:02

    Часовой пояс: GMT + 2



    Вы не можете начинать темы
    Вы не можете отвечать на сообщения
    Вы не можете редактировать свои сообщения
    Вы не можете удалять свои сообщения
    Вы не можете голосовать в опросах
    Вы не можете прикреплять файлы к сообщениям
    Вы не можете скачивать файлы