Register  ·  Log in
Forgot password?

  • Всего дороже (Ю. Музыкант, С. Селектор) [1957, Драма, VHSRip]

    Reply to topic
    Author Message


    Post 03-Dec-2015 01:13



    Всего дороже
    Жанр: Драма
    Год выпуска: 1957
    Продолжительность: 01:18:52

    Режиссёры: Ю. Музыкант, С. Селектор
    В ролях: Юлиан Панич, Галина Карелина, Михаил Иванов, Ольга Аверичева, Аркадий Трусов, Александр Суснин, Ия Арепина, Любовь Калюжная, Николай Крючков, Антонина Павлычева, Юрий Соловьёв, Пётр Лобанов, Иван Селянин, Александр Лариков
    Описание: Молодой председатель колхоза Роман Бакланов однажды совершил ошибку: уступив жене и ее родственникам, выручил своего тестя, пропившего колхозное сено, и выдал ему фиктивную справку. Затем по вине Бакланова арестовали честного парня, и он опять не нашел в себе силы исправить ситуацию. Но когда мошенники потребовали от самого Бакланова прямого участия в их темных делах, Роман поехал за поддержкой к секретарю райкома...

    Доп. информация:
    Благодарность за рип: and70311448

    Качество видео: VHSRip
    Формат видео: AVI
    Видео: 640x480 (1.33:1), 25 fps, XviD build 50 ~1847 kbps avg, 0.24 bit/pixel
    Аудио: 48 kHz, MPEG Layer 3, 2 ch, ~128.00 kbps avg


    Complete name : Vsego.Doroge.1957.Xvid.VHSrip.fenixclub.avi
    Format : AVI
    Format/Info : Audio Video Interleave
    File size : 1.09 GiB
    Duration : 1h 18mn
    Overall bit rate : 1 985 Kbps
    Writing application : VirtualDubMod (build 2540/release)
    Writing library : VirtualDubMod build 2540/release
    ID : 0
    Format : MPEG-4 Visual
    Format profile : Advanced Simple@L5
    Format settings, BVOP : No
    Format settings, QPel : No
    Format settings, GMC : No warppoints
    Format settings, Matrix : Custom
    Codec ID : XVID
    Codec ID/Hint : XviD
    Duration : 1h 18mn
    Bit rate : 1 848 Kbps
    Width : 640 pixels
    Height : 480 pixels
    Display aspect ratio : 4:3
    Frame rate : 25.000 fps
    Color space : YUV
    Chroma subsampling : 4:2:0
    Bit depth : 8 bits
    Scan type : Progressive
    Compression mode : Lossy
    Bits/(Pixel*Frame) : 0.241
    Stream size : 1.02 GiB (93%)
    Writing library : XviD 1.2.1 (UTC 2008-12-04)
    ID : 1
    Format : MPEG Audio
    Format version : Version 1
    Format profile : Layer 3
    Mode : Joint stereo
    Mode extension : MS Stereo
    Codec ID : 55
    Codec ID/Hint : MP3
    Duration : 1h 18mn
    Bit rate mode : Constant
    Bit rate : 128 Kbps
    Channel(s) : 2 channels
    Sampling rate : 48.0 KHz
    Compression mode : Lossy
    Stream size : 72.2 MiB (6%)
    Alignment : Aligned on interleaves
    Interleave, duration : 40 ms (1.00 video frame)
    Interleave, preload duration : 504 ms


    Download .torrent

    Download free and at maximum speed!

    How to Download? · What is a torrent? · Ratings and Limitations

    The site does not extend and does not store electronic(digital) versions of products, and only gives access to a reference catalogue created by users on torrent-files which contain only lists of the hash-sums, the earnest entreaty, with complaints(abuse) to access directly to the user. Files for an exchange on tracker are given by users of a site, and the administration does not bear the responsibility for their maintenance. The request to not fill in the files protected by copyrights, and also files of the illegal maintenance!

    [Profile] [PM]
    Display posts from previous:    
    Reply to topic

    The time now is: Today 08:32

    All times are GMT + 3 Hours

    You cannot post new topics in this forum
    You cannot reply to topics in this forum
    You cannot edit your posts in this forum
    You cannot delete your posts in this forum
    You cannot vote in polls in this forum
    You cannot attach files in this forum
    You cannot download files in this forum