BitTorrentTracker PerecTracker.org
BitTorrentTracker PerecTracker.org
    
Регистрация  ·  Вход
 
 · 
Забыли пароль?

  • После ярмарки (Юрий Цветков) [1972, комедия, экранизация, DVB-AVC]

    Ответить на тему
     
    Автор Сообщение

    Light

    Создавать темы 03-Дек-2015 00:13

           

    [Цитировать]

    После ярмарки
    Страна: СССР
    Производство: Беларусьфильм
    Жанр: комедия, экранизация
    Год выпуска: 1972
    Продолжительность: 01:02:48
    Режиссёр: Юрий Цветков
    Сценарист: Андрей Макаёнок
    Оператор: Марк Брауде
    Композитор: Евгений Глебов
    Художник: Сергей Бржестовский
    В ролях: Людмила Сенчина, Иван Гаврилюк, Борис Новиков, Галина Макарова, Михаил Пуговкин, Любовь Малиновская, Августин Милованов, Степан Хацкевич, Станислав Чекан, Ростислав Шмырёв
    Описание: Телефильм по мотивам пьесы Я.Купалы «Павлинка».
    Крестьянская дочь Павлинка любит сельского учителя Якима. Но ее отец, мечтая породниться с дворянским родом, хочет выдать дочь за глупого шляхтича Быковского. После застолья, устроенного родителями Павлинки в честь приезда Быковского, гостя в темноте принимают за вора и заключают под арест. Воспользовавшись этим недоразумением, Яким похищает свою любимую.
    Запись потока *.ts с наземного цифрового телеканала "Беларусь 3", ремукс в *.mkv программой VideoReDo.
    Семпл: http://rusfolder.com/44434200
    качество: DVB-AVC
    формат: MKV
    Видео: MPEG4 Video (H264) 720x576 (49:36) 25fps, 2 206 Kbps
    Аудио: MPEG Audio 48000Hz stereo 256kbps

    MediaInfo

    GeneralUnique ID : 175754483667429896962455776961155794052 (0x843915115215C295153A4BA375478484)Complete name : D:\Новая земля 2\Художественные фильмы\После ярмарки (1972)\После ярмарки (1972).mkvFormat : MatroskaFormat version : Version 2File size : 1.10 GiBDuration : 1h 2mnOverall bit rate : 2 512 KbpsWriting application : Lavf52.64.2Writing library : Lavf52.64.2
    VideoID : 1Format : AVCFormat/Info : Advanced Video CodecFormat profile : Main@L3.0Format settings, CABAC : YesFormat settings, ReFrames : 4 framesFormat settings, GOP : M=4, N=24Codec ID : V_MPEG4/ISO/AVCDuration : 1h 2mnBit rate : 2 206 KbpsWidth : 720 pixelsHeight : 576 pixelsDisplay aspect ratio : 4:3Original display aspect ratio : 4:3Frame rate mode : ConstantFrame rate : 25.000 fpsStandard : PALColor space : YUVChroma subsampling : 4:2:0Bit depth : 8 bitsScan type : MBAFFScan order : Top Field FirstBits/(Pixel*Frame) : 0.213Stream size : 991 MiB (88%)Default : YesForced : NoColor primaries : BT.601 PALTransfer characteristics : BT.470 System B, BT.470 System GMatrix coefficients : BT.601Color range : Limited
    AudioID : 2Format : MPEG AudioFormat version : Version 1Format profile : Layer 2Codec ID : A_MPEG/L2Codec ID/Hint : MP2Duration : 1h 2mnBit rate mode : ConstantBit rate : 256 KbpsChannel(s) : 2 channelsSampling rate : 48.0 KHzCompression mode : LossyStream size : 115 MiB (10%)Language : EnglishDefault : YesForced : No

    Скриншоты

    Скачать .torrent

    Скачать торрент-файл бесплатно и на максимальной скорости!

    Как скачивать? · Что такое торрент? · Рейтинг и ограничения

    !ВНИМАНИЕ!
    Сайт не распространяет и не хранит электронные версии произведений, а занимается лишь лишь предоставлением доступа к создаваемому пользователями каталогу ссылок на торрент-файлы, которые содержат только списки хеш-сумм, убедительная просьба с жалобами обращаться напрямую к пользователю. Файлы для обмена на трекере предоставлены пользователями сайта, и администрация не несёт ответственности за их содержание. Просьба не заливать файлы, защищенные авторскими правами, а также файлы нелегального содержания!


    _________________
    [Профиль] [ЛС]
    Показать сообщения:    
    Ответить на тему

    Текущее время: Сегодня, в 12:33

    Часовой пояс: GMT + 2



    Вы не можете начинать темы
    Вы не можете отвечать на сообщения
    Вы не можете редактировать свои сообщения
    Вы не можете удалять свои сообщения
    Вы не можете голосовать в опросах
    Вы не можете прикреплять файлы к сообщениям
    Вы не можете скачивать файлы