BitTorrentTracker PerecTracker.org
BitTorrentTracker PerecTracker.org
    
Регистрация  ·  Вход
 
 · 
Забыли пароль?

  • Если есть паруса (Валентин Козачков) [1969, киноповесть, DVB]

    Ответить на тему
     
    Автор Сообщение

    Light

    Создавать темы 03-Дек-2015 00:13

           

    [Цитировать]

    Если есть паруса
    Жанр: киноповесть
    Год выпуска: 1969
    Продолжительность: 01:09:29
    Режиссёр: Валентин Козачков
    В ролях: Виктор Семенов, Тая Додина, Михаил Пуговкин, Алексей Грибов, Нонна Копержинская, Георгий Юматов, Станислав Соколов, Валерий Зубарев, Муза Крепкогорская, Геннадий Ялович, Борислав Брондуков, Виктор Мережко, Герман Колушкин
    Описание: Иван Елкин после окончания мореходного училища назначается шестым по счету капитаном маленького буксира "Геркулес", где уже давно сложился небольшой коллектив. Энергичный и принципиальный юноша очень скоро, но с большим риском завоюет авторитет и уважение всей команды.
    Доп. информация: Запись потока *.ts со спутника EUTELSAT 36A/B, 36° в.д., ремукс в *.MKV
    Качество видео: DVB
    Формат видео: MKV
    Видео: MPEG Video, 720x576 (4:3), 25,000 кадров/сек, 3690 Кбит/сек
    Аудио: MPEG Audio, 48,0 КГц, 192 Кбит/сек, 2 канала

    MediaInfo

    Общее
    Уникальный идентификатор : 326875642750619271559155620530841723645 (0xF5E9F576F591E39CB2A35AD4065022FD)
    Полное имя : D:\MPG\ЕСЛИ ЕСТЬ ПАРУСА (Ностальгия).mkv
    Формат : Matroska
    Версия формата : Version 2
    Размер файла : 1,92 Гбайт
    Продолжительность : 1 ч. 9 м.
    Режим общего битрейта : Переменный
    Общий поток : 3961 Кбит/сек
    Программа кодирования : Lavf52.64.2
    Библиотека кодирования : Lavf52.64.2
    Видео
    Идентификатор : 1
    Формат : MPEG Video
    Версия формата : Version 2
    Профиль формата : Main@Main
    Параметр BVOP формата : Нет
    Параметр матрицы формата : Выборочная
    Идентификатор кодека : V_MPEG2
    Идентификатор кодека/Информация : MPEG 1 or 2 Video
    Продолжительность : 1 ч. 9 м.
    Вид битрейта : Переменный
    Битрейт : 3690 Кбит/сек
    Максимальный битрейт : 15,0 Мбит/сек
    Ширина : 720 пикселей
    Высота : 576 пикселей
    Соотношение сторон : 4:3
    Соотношение сторон в оригинале : 4:3
    Режим частоты кадров : Постоянный
    Частота кадров : 25,000 кадров/сек
    Стандарт вещания : PAL
    Цветовое пространство : YUV
    Субдискретизация насыщенности : 4:2:0
    Битовая глубина : 8 бит
    Тип развёртки : Чересстрочная
    Порядок развёртки : Верхнее поле первое
    Метод сжатия : С потерями
    Бит/(Пиксели*Кадры) : 0.356
    Временной код первого кадра : 00:00:00:00
    Оригинал временного кода : Group of pictures header
    Размер потока : 1,79 Гбайт (93%)
    Default : Да
    Forced : Нет
    Аудио
    Идентификатор : 2
    Формат : MPEG Audio
    Версия формата : Version 1
    Профиль формата : Layer 2
    Идентификатор кодека : A_MPEG/L2
    Идентификатор кодека/Подсказка : MP2
    Продолжительность : 1 ч. 9 м.
    Вид битрейта : Постоянный
    Битрейт : 192 Кбит/сек
    Каналы : 2 канала
    Частота : 48,0 КГц
    Метод сжатия : С потерями
    Задержка видео : -1 м. 5 с.
    Размер потока : 95,4 Мбайт (5%)
    Язык : Russian
    Default : Да
    Forced : Нет

    Скриншоты

    Скачать .torrent

    Скачать торрент-файл бесплатно и на максимальной скорости!

    Как скачивать? · Что такое торрент? · Рейтинг и ограничения

    !ВНИМАНИЕ!
    Сайт не распространяет и не хранит электронные версии произведений, а занимается лишь лишь предоставлением доступа к создаваемому пользователями каталогу ссылок на торрент-файлы, которые содержат только списки хеш-сумм, убедительная просьба с жалобами обращаться напрямую к пользователю. Файлы для обмена на трекере предоставлены пользователями сайта, и администрация не несёт ответственности за их содержание. Просьба не заливать файлы, защищенные авторскими правами, а также файлы нелегального содержания!


    _________________
    [Профиль] [ЛС]
    Показать сообщения:    
    Ответить на тему

    Текущее время: Сегодня, в 07:59

    Часовой пояс: GMT + 2



    Вы не можете начинать темы
    Вы не можете отвечать на сообщения
    Вы не можете редактировать свои сообщения
    Вы не можете удалять свои сообщения
    Вы не можете голосовать в опросах
    Вы не можете прикреплять файлы к сообщениям
    Вы не можете скачивать файлы