BitTorrentTracker PerecTracker.org
BitTorrentTracker PerecTracker.org
    
Регистрация  ·  Вход
 
 · 
Забыли пароль?

  • Команда "33" (Николай Гусаров) [1987, комедия, DVDRip]

    Ответить на тему
     
    Автор Сообщение

    Light

    Создавать темы 03-Дек-2015 00:13

           

    [Цитировать]

    Команда "33"
    Год выпуска: 1987
    Жанр: комедия
    Продолжительность: 01:19:11.959 (118799 frames)
    Субтитры: нет
    Режиссер: Николай Гусаров
    В ролях: Юрий Назаров, Александр Рахленко, Сергей Тезов, Сергей Созинов, Алексей Рождественский, Геннадий Сидоров, Валерий Немешаев, Владимир Белоусов, Милена Тонтегоде, Валерий Храмцов
    Описание: Полковнику Никитину поручено сопровождать группу призывников к месту службы на Дальний Восток. Воинский эшелон идет туда несколько суток, и молодые солдаты постигают первые тяготы армейской жизни.
    Качество: DVDRip
    Формат: AVI
    Видео кодек: XviD
    Аудио кодек: АС3
    Видео: 672x512 (1.31:1), 25 fps, XviD build 73 ~2264 kbps avg, 0.26 bit/pixel
    Аудио: 48 kHz, AC3 Dolby Digital, 2/0 (L,R) ch, ~192.00 kbps avg

    Скриншоты

    Медиаинфо

    F:\004 Мои раздачи\Команда 33 1,36\komanda_33_1.36_[torrents.ru]_by_bm11.avi
    General
    Complete name : F:\004 Мои раздачи\Команда 33 1,36\komanda_33_1.36_[torrents.ru]_by_bm11.avi
    Format : AVI
    Format/Info : Audio Video Interleave
    File size : 1.36 GiB
    Duration : 1h 19mn
    Overall bit rate : 2 466 Kbps
    Director : bm11
    Writing application : VirtualDubMod 1.5.10.3 | www.virtualdub-fr.org || (build 2550/release)
    Video
    Format : MPEG-4 Visual
    Format profile : Streaming Video@L1
    Format settings, BVOP : Yes
    Format settings, QPel : No
    Format settings, GMC : No warppoints
    Format settings, Matrix : Custom
    Codec ID : XVID
    Codec ID/Hint : XviD
    Duration : 1h 19mn
    Bit rate : 2 264 Kbps
    Width : 672 pixels
    Height : 512 pixels
    Display aspect ratio : 4/3
    Frame rate : 25.000 fps
    Resolution : 24 bits
    Colorimetry : 4:2:0
    Scan type : Progressive
    Bits/(Pixel*Frame) : 0.263
    Stream size : 1.25 GiB (92%)
    Writing library : XviD 73
    Audio
    Format : AC-3
    Format/Info : Audio Coding 3
    Codec ID : 2000
    Duration : 1h 19mn
    Bit rate mode : Constant
    Bit rate : 192 Kbps
    Channel(s) : 2 channels
    Channel positions : L R
    Sampling rate : 48.0 KHz
    Stream size : 109 MiB (8%)
    Alignment : Split accross interleaves
    Interleave, duration : 40 ms (1.00 video frame)
    Interleave, preload duration : 500 ms

    Сравнение

    http://perectracker.org/viewtopic.php?t=1191323
    в старом рипе недокроп и апскейл
    мой / старый / исходник



    Скачать .torrent

    Скачать торрент-файл бесплатно и на максимальной скорости!

    Как скачивать? · Что такое торрент? · Рейтинг и ограничения

    !ВНИМАНИЕ!
    Сайт не распространяет и не хранит электронные версии произведений, а занимается лишь лишь предоставлением доступа к создаваемому пользователями каталогу ссылок на торрент-файлы, которые содержат только списки хеш-сумм, убедительная просьба с жалобами обращаться напрямую к пользователю. Файлы для обмена на трекере предоставлены пользователями сайта, и администрация не несёт ответственности за их содержание. Просьба не заливать файлы, защищенные авторскими правами, а также файлы нелегального содержания!


    _________________
    [Профиль] [ЛС]
    Показать сообщения:    
    Ответить на тему

    Текущее время: Сегодня, в 06:14

    Часовой пояс: GMT + 2



    Вы не можете начинать темы
    Вы не можете отвечать на сообщения
    Вы не можете редактировать свои сообщения
    Вы не можете удалять свои сообщения
    Вы не можете голосовать в опросах
    Вы не можете прикреплять файлы к сообщениям
    Вы не можете скачивать файлы