Register  ·  Log in
Forgot password?

  • Команда "33" (Николай Гусаров) [1987, комедия, DVDRip]

    Reply to topic
    Author Message


    Post 03-Dec-2015 01:13



    Команда "33"
    Год выпуска: 1987
    Жанр: комедия
    Продолжительность: 01:19:11.959 (118799 frames)
    Субтитры: нет
    Режиссер: Николай Гусаров
    В ролях: Юрий Назаров, Александр Рахленко, Сергей Тезов, Сергей Созинов, Алексей Рождественский, Геннадий Сидоров, Валерий Немешаев, Владимир Белоусов, Милена Тонтегоде, Валерий Храмцов
    Описание: Полковнику Никитину поручено сопровождать группу призывников к месту службы на Дальний Восток. Воинский эшелон идет туда несколько суток, и молодые солдаты постигают первые тяготы армейской жизни.
    Качество: DVDRip
    Формат: AVI
    Видео кодек: XviD
    Аудио кодек: АС3
    Видео: 672x512 (1.31:1), 25 fps, XviD build 73 ~2264 kbps avg, 0.26 bit/pixel
    Аудио: 48 kHz, AC3 Dolby Digital, 2/0 (L,R) ch, ~192.00 kbps avg



    F:\004 Мои раздачи\Команда 33 1,36\komanda_33_1.36_[]_by_bm11.avi
    Complete name : F:\004 Мои раздачи\Команда 33 1,36\komanda_33_1.36_[]_by_bm11.avi
    Format : AVI
    Format/Info : Audio Video Interleave
    File size : 1.36 GiB
    Duration : 1h 19mn
    Overall bit rate : 2 466 Kbps
    Director : bm11
    Writing application : VirtualDubMod | || (build 2550/release)
    Format : MPEG-4 Visual
    Format profile : Streaming Video@L1
    Format settings, BVOP : Yes
    Format settings, QPel : No
    Format settings, GMC : No warppoints
    Format settings, Matrix : Custom
    Codec ID : XVID
    Codec ID/Hint : XviD
    Duration : 1h 19mn
    Bit rate : 2 264 Kbps
    Width : 672 pixels
    Height : 512 pixels
    Display aspect ratio : 4/3
    Frame rate : 25.000 fps
    Resolution : 24 bits
    Colorimetry : 4:2:0
    Scan type : Progressive
    Bits/(Pixel*Frame) : 0.263
    Stream size : 1.25 GiB (92%)
    Writing library : XviD 73
    Format : AC-3
    Format/Info : Audio Coding 3
    Codec ID : 2000
    Duration : 1h 19mn
    Bit rate mode : Constant
    Bit rate : 192 Kbps
    Channel(s) : 2 channels
    Channel positions : L R
    Sampling rate : 48.0 KHz
    Stream size : 109 MiB (8%)
    Alignment : Split accross interleaves
    Interleave, duration : 40 ms (1.00 video frame)
    Interleave, preload duration : 500 ms

    в старом рипе недокроп и апскейл
    мой / старый / исходник

    Download .torrent

    Download free and at maximum speed!

    How to Download? · What is a torrent? · Ratings and Limitations

    The site does not extend and does not store electronic(digital) versions of products, and only gives access to a reference catalogue created by users on torrent-files which contain only lists of the hash-sums, the earnest entreaty, with complaints(abuse) to access directly to the user. Files for an exchange on tracker are given by users of a site, and the administration does not bear the responsibility for their maintenance. The request to not fill in the files protected by copyrights, and also files of the illegal maintenance!

    [Profile] [PM]
    Display posts from previous:    
    Reply to topic

    The time now is: Today 11:58

    All times are GMT + 3 Hours

    You cannot post new topics in this forum
    You cannot reply to topics in this forum
    You cannot edit your posts in this forum
    You cannot delete your posts in this forum
    You cannot vote in polls in this forum
    You cannot attach files in this forum
    You cannot download files in this forum