BitTorrentTracker PerecTracker.org
BitTorrentTracker PerecTracker.org
    
Регистрация  ·  Вход
 
 · 
Забыли пароль?

  • Команда "33" (Николай Гусаров) [1987, комедия, DVDRip]

    Ответить на тему
     
    Автор Сообщение

    Light

    Создавать темы 03-Дек-2015 00:13

           

    [Цитировать]

    Команда "33"
    Год выпуска: 1987
    Жанр: комедия
    Продолжительность: 01:19:11.959 (118799 frames)
    Субтитры: нет
    Режиссер: Николай Гусаров
    В ролях: Юрий Назаров, Александр Рахленко, Сергей Тезов, Сергей Созинов, Алексей Рождественский, Геннадий Сидоров, Валерий Немешаев, Владимир Белоусов, Милена Тонтегоде, Валерий Храмцов
    Описание: Полковнику Никитину поручено сопровождать группу призывников к месту службы на Дальний Восток. Воинский эшелон идет туда несколько суток, и молодые солдаты постигают первые тяготы армейской жизни.
    Качество: DVDRip
    Формат: AVI
    Видео кодек: XviD
    Аудио кодек: МР3
    Видео: 640x496 (1.29:1), 25 fps, XviD build 73 ~1172 kbps avg, 0.15 bit/pixel
    Аудио: 48 kHz, MPEG Layer 3, 2 ch, ~128.00 kbps avg

    Скриншоты

    Медиаинфо

    F:\004 Мои раздачи\Команда 33 745\komanda_33_745_[torrents.ru]_by_bm11.avi
    General
    Complete name : F:\004 Мои раздачи\Команда 33 745\komanda_33_745_[torrents.ru]_by_bm11.avi
    Format : AVI
    Format/Info : Audio Video Interleave
    File size : 742 MiB
    Duration : 1h 19mn
    Overall bit rate : 1 310 Kbps
    Writing application : VirtualDubMod 1.5.10.3 | www.virtualdub-fr.org || (build 2550/release)
    Writing library : VirtualDubMod build 2550/release
    Video
    Format : MPEG-4 Visual
    Format profile : Streaming Video@L1
    Format settings, BVOP : Yes
    Format settings, QPel : No
    Format settings, GMC : No warppoints
    Format settings, Matrix : Custom
    Codec ID : XVID
    Codec ID/Hint : XviD
    Duration : 1h 19mn
    Bit rate : 1 173 Kbps
    Width : 640 pixels
    Height : 496 pixels
    Display aspect ratio : 1.290
    Frame rate : 25.000 fps
    Resolution : 24 bits
    Colorimetry : 4:2:0
    Scan type : Progressive
    Bits/(Pixel*Frame) : 0.148
    Stream size : 664 MiB (89%)
    Writing library : XviD 73
    Audio
    Format : MPEG Audio
    Format version : Version 1
    Format profile : Layer 3
    Codec ID : 55
    Codec ID/Hint : MP3
    Duration : 1h 19mn
    Bit rate mode : Constant
    Bit rate : 128 Kbps
    Minimum bit rate : 128 Kbps
    Channel(s) : 2 channels
    Sampling rate : 48.0 KHz
    Resolution : 16 bits
    Stream size : 72.5 MiB (10%)
    Alignment : Aligned on interleaves
    Interleave, duration : 40 ms (1.00 video frame)
    Interleave, preload duration : 504 ms
    Writing library : LAME3.99r
    Encoding settings : CBR

    Сравнение

    http://perectracker.org/viewtopic.php?t=400135
    http://screenshotcomparison.com/comparison/150097/picture:3
    плюс в старом рипе недокроп, апскейл и переменный битрейт звука
    Скачать .torrent

    Скачать торрент-файл бесплатно и на максимальной скорости!

    Как скачивать? · Что такое торрент? · Рейтинг и ограничения

    !ВНИМАНИЕ!
    Сайт не распространяет и не хранит электронные версии произведений, а занимается лишь лишь предоставлением доступа к создаваемому пользователями каталогу ссылок на торрент-файлы, которые содержат только списки хеш-сумм, убедительная просьба с жалобами обращаться напрямую к пользователю. Файлы для обмена на трекере предоставлены пользователями сайта, и администрация не несёт ответственности за их содержание. Просьба не заливать файлы, защищенные авторскими правами, а также файлы нелегального содержания!


    _________________
    [Профиль] [ЛС]
    Показать сообщения:    
    Ответить на тему

    Текущее время: Сегодня, в 12:10

    Часовой пояс: GMT + 2



    Вы не можете начинать темы
    Вы не можете отвечать на сообщения
    Вы не можете редактировать свои сообщения
    Вы не можете удалять свои сообщения
    Вы не можете голосовать в опросах
    Вы не можете прикреплять файлы к сообщениям
    Вы не можете скачивать файлы