BitTorrentTracker PerecTracker.org
BitTorrentTracker PerecTracker.org
    
Регистрация  ·  Вход
 
 · 
Забыли пароль?

  • Ключ без права передачи (Динара Асанова) [1977, Драма, SATRip, AVC]

    Ответить на тему
     
    Автор Сообщение

    Light

    Создавать темы 03-Дек-2015 00:13

           

    [Цитировать]

    Ключ без права передачи
    Жанр: Драма
    Год выпуска: 1976
    Продолжительность: 1:33:17
    Режиссёр: Динара Асанова
    В ролях: Елена Проклова, Алексей Петренко, Лидия Федосеева-Шукшина, Любовь Малиновская, Зиновий Гердт, Екатерина Васильева, Олег Хроменков, Марина Левтова, Анвар Асанов, Александр Богданов, Андрей Лавриков, Елена Цыплакова, Константин Николаев, Лилия Гриценко
    Описание: В десятом классе обычной школы строятся очень странные взаимоотношения. Члены дружного коллектива плохо ладят с родителями и учителями, но очень дружны со своей молодой классной руководительницей Мариной Максимовной…
    В фильме прозвучала песня Булата Окуджавы «Давайте восклицать». Её автор появляется в картине, читая стихи о А. С. Пушкине. Также в фильме звучали в исполнении авторов стихи "Дачный роман", Беллы Ахмадулиной, "Пушкин" Булата Окуджавы, "Болдинская осень" Давида Самойлова и "В кругу земных столпотворений" Михаила Дудина.
    Премия за лучшую режиссуру - Динара Асанова, 1977 год, ВКФ;
    Приз ЦК ЛКСМ - Динара Асанова, 1977 год, ВКФ;
    Диплом творческому коллективу по разделу детких фильмов - Динара Асанова, 1977 год, ВКФ;
    Премия за лучшее исполнение мужской роли - Алексей Петренко, 1977 год, ВКФ;
    Специальный приз жюри детских фильмов - Динара Асанова, 1977 год, МКФ в Москве;

    Доп. информация:

    Широкоэкранный вариант фильма, например, сравнение с этим DVDRip


    Анонс фильма на Youtube
    Семпл: http://multi-up.com/1075258
    Качество видео: SATRip
    Формат видео: MKV
    Видео: h264,704x336,aspect=2.045,fps=25,1000kbps
    Аудио: русский,aac,48kHz,128kbps,стерео

    MediaInfo

    General
    Unique ID : 319888647853859068687411020205928970806 (0xF0A850050E02E7F8B969E85474C37A36)
    Complete name : Ключ без права передачи (Д.Асанова,1976).mkv
    Format : Matroska
    Format version : Version 2
    File size : 756 MiB
    Duration : 1h 33mn
    Overall bit rate : 1 131 Kbps
    Movie name : Avidemux
    Writing application : Lavf53.24.0
    Writing library : Lavf53.24.0
    AUTHOR : Avidemux
    Video
    ID : 1
    Format : AVC
    Format/Info : Advanced Video Codec
    Format profile : High@L3
    Format settings, CABAC : Yes
    Format settings, ReFrames : 3 frames
    Codec ID : V_MPEG4/ISO/AVC
    Duration : 1h 33mn
    Bit rate : 1 000 Kbps
    Width : 704 pixels
    Height : 336 pixels
    Display aspect ratio : 2.095
    Frame rate mode : Constant
    Frame rate : 25.000 fps
    Color space : YUV
    Chroma subsampling : 4:2:0
    Bit depth : 8 bits
    Scan type : Progressive
    Bits/(Pixel*Frame) : 0.169
    Stream size : 655 MiB (87%)
    Writing library : x264 core 148 r2579 73ae2d1
    Encoding settings : cabac=1 / ref=3 / deblock=1:2:1 / analyse=0x3:0x2 / me=hex / subme=7 / psy=1 / psy_rd=1,00:0,00 / mixed_ref=0 / me_range=16 / chroma_me=0 / trellis=1 / 8x8dct=1 / cqm=0 / deadzone=21,11 / fast_pskip=1 / chroma_qp_offset=-2 / threads=3 / lookahead_threads=1 / sliced_threads=0 / nr=0 / decimate=0 / interlaced=0 / bluray_compat=0 / constrained_intra=0 / bframes=3 / b_pyramid=0 / b_adapt=0 / b_bias=0 / direct=1 / weightb=1 / open_gop=0 / weightp=2 / keyint=250 / keyint_min=25 / scenecut=40 / intra_refresh=0 / rc_lookahead=40 / rc=abr / mbtree=1 / bitrate=1000 / ratetol=1,0 / qcomp=0,60 / qpmin=10 / qpmax=51 / qpstep=4 / ip_ratio=1,40 / aq=1:1,00
    Default : Yes
    Forced : No
    Audio
    ID : 2
    Format : AC-3
    Format/Info : Audio Coding 3
    Mode extension : CM (complete main)
    Format settings, Endianness : Big
    Codec ID : A_AC3
    Duration : 1h 33mn
    Bit rate mode : Constant
    Bit rate : 128 Kbps
    Channel(s) : 2 channels
    Channel positions : Front: L R
    Sampling rate : 48.0 KHz
    Compression mode : Lossy
    Delay relative to video : -40ms
    Stream size : 85.5 MiB (11%)
    Default : Yes
    Forced : No

    Скриншоты


    Скачать .torrent

    Скачать торрент-файл бесплатно и на максимальной скорости!

    Как скачивать? · Что такое торрент? · Рейтинг и ограничения

    !ВНИМАНИЕ!
    Сайт не распространяет и не хранит электронные версии произведений, а занимается лишь лишь предоставлением доступа к создаваемому пользователями каталогу ссылок на торрент-файлы, которые содержат только списки хеш-сумм, убедительная просьба с жалобами обращаться напрямую к пользователю. Файлы для обмена на трекере предоставлены пользователями сайта, и администрация не несёт ответственности за их содержание. Просьба не заливать файлы, защищенные авторскими правами, а также файлы нелегального содержания!


    _________________
    [Профиль] [ЛС]
    Показать сообщения:    
    Ответить на тему

    Текущее время: Сегодня, в 02:02

    Часовой пояс: GMT + 2



    Вы не можете начинать темы
    Вы не можете отвечать на сообщения
    Вы не можете редактировать свои сообщения
    Вы не можете удалять свои сообщения
    Вы не можете голосовать в опросах
    Вы не можете прикреплять файлы к сообщениям
    Вы не можете скачивать файлы