Register  ·  Log in
Forgot password?

  • Актриса (Леонид Трауберг) [1942, мелодрама, DVB]

    Reply to topic
    Author Message


    Post 03-Dec-2015 01:13



    Жанр: мелодрама
    Год выпуска: 1942
    Продолжительность: 01:12:07
    Режиссёр: Леонид Трауберг
    В ролях: Галина Сергеева, Борис Бабочкин, Зинаида Морская, Владимир Грибков, Михаил Жаров, Юрий Коршун, Константин Сорокин, Николай Темяков, Владимир Шишкин, Александра Денисова, Георгий Гумилевский, Георгий Светлани, Григорий Шпигель
    Описание: Известная актриса оперетты, посчитав, что в годы войны ее профессия неуместна, решила оставить сцену. Но потребность в песне на фронте, в тылу и в госпиталях оказалась для многих естественным и необходимым желанием, а для певицы - открытием. Актриса возвращается к своей профессии.
    Доп. информация: Запись потока *.ts со спутника Экспресс АМ7, 40° в.д., ремукс в *.mkv программой VideoReDo.
    Качество видео: DVB
    Формат видео: MKV
    Видео: MPEG Video, 720(768)x576 (4:3), 25,000 кадров/сек, 5249 Кбит/сек
    Аудио: MPEG Audio, 48,0 КГц, 256 Кбит/сек, 2 канала


    Unique ID : 247143959465599129301804759377282678482 (0xB9EE31F957CEEE13739C7885AACD3ED2)
    Complete name : D:\MPG\АКТРИСА (Kultura 40).mkv
    Format : Matroska
    Format version : Version 2
    File size : 2.83 GiB
    Duration : 1h 12mn
    Overall bit rate mode : Variable
    Overall bit rate : 5 617 Kbps
    Writing application : Lavf52.64.2
    Writing library : Lavf52.64.2
    ID : 1
    Format : MPEG Video
    Format version : Version 2
    Format profile : Main@Main
    Format settings, BVOP : No
    Format settings, Matrix : Custom
    Codec ID : V_MPEG2
    Codec ID/Info : MPEG 1 or 2 Video
    Duration : 1h 12mn
    Bit rate mode : Variable
    Bit rate : 5 249 Kbps
    Maximum bit rate : 15.0 Mbps
    Width : 720 pixels
    Height : 576 pixels
    Display aspect ratio : 4:3
    Original display aspect ratio : 4:3
    Frame rate mode : Constant
    Frame rate : 25.000 fps
    Standard : PAL
    Color space : YUV
    Chroma subsampling : 4:2:0
    Bit depth : 8 bits
    Scan type : Interlaced
    Scan order : Top Field First
    Compression mode : Lossy
    Bits/(Pixel*Frame) : 0.506
    Time code of first frame : 00:00:00:00
    Time code source : Group of pictures header
    Stream size : 2.64 GiB (93%)
    Default : Yes
    Forced : No
    ID : 2
    Format : MPEG Audio
    Format version : Version 1
    Format profile : Layer 2
    Codec ID : A_MPEG/L2
    Codec ID/Hint : MP2
    Duration : 1h 12mn
    Bit rate mode : Constant
    Bit rate : 256 Kbps
    Channel count : 2 channels
    Sampling rate : 48.0 KHz
    Compression mode : Lossy
    Delay relative to video : -1mn 5s
    Stream size : 132 MiB (5%)
    Language : English
    Default : Yes
    Forced : No


    Download .torrent

    Download free and at maximum speed!

    How to Download? · What is a torrent? · Ratings and Limitations

    The site does not extend and does not store electronic(digital) versions of products, and only gives access to a reference catalogue created by users on torrent-files which contain only lists of the hash-sums, the earnest entreaty, with complaints(abuse) to access directly to the user. Files for an exchange on tracker are given by users of a site, and the administration does not bear the responsibility for their maintenance. The request to not fill in the files protected by copyrights, and also files of the illegal maintenance!

    [Profile] [PM]
    Display posts from previous:    
    Reply to topic

    The time now is: Today 12:08

    All times are GMT + 3 Hours

    You cannot post new topics in this forum
    You cannot reply to topics in this forum
    You cannot edit your posts in this forum
    You cannot delete your posts in this forum
    You cannot vote in polls in this forum
    You cannot attach files in this forum
    You cannot download files in this forum