BitTorrentTracker PerecTracker.org
BitTorrentTracker PerecTracker.org
    
Регистрация  ·  Вход
 
 · 
Забыли пароль?

  • Двадцать шесть комиссаров / 26 комиссаров / 26 бакинских комиссаров (Николос (Николай) Шенгелая) [1933, драма, историко-революционный, немое кино, WEBRip-AVC]

    Ответить на тему
     
    Автор Сообщение

    Light

    Создавать темы 03-Дек-2015 00:13

           

    [Цитировать]

    Двадцать шесть комиссаров / 26 комиссаров / 26 бакинских комиссаров
    Жанр: драма, историко-революционный, немой
    Страна: СССР
    Студия: Азерфильм, Союзкино
    Год выпуска: 1933
    Продолжительность: 01:45:21
    Режиссёр: Николос (Николай) Шенгелая
    В ролях:
    К.Гасанов … Степан Шаумян
    Хайри Эмир-заде … Комиcсар
    Алисаттар Меликов … большевик
    Иван Клюквин … Петька, красноармеец
    Василий Ковригин … Васька, матрос
    Н.Куликов … русский рабочий
    Ала-Верды Меликов … тюрок, рабочий
    Верико Анджапаридзе … жена рабочего
    Пётр Морской … большевик с фронта
    Игорь Савченко … лидер эсеров
    Коте Андроникашвили … лидер дашнаков
    Михаил Абесадзе … человек с "Маузером"
    П.Рязанов … генерал Денвиль
    Х.Венариков … капитан Джонсон
    Мустафа Марданов … меньшевик
    Владимир Гардин … гражданин с хризантемой
    Баба-заде … Азизбеков (нет в титрах)
    Михаил Жаров … меньшевик (нет в титрах)
    Иона Бий-Бродский … эпизод (нет в титрах)
    Описание: О героической борьбе и гибели двадцати шести бакинских комиссаров.
    Весной 1918 г. бакинский пролетариат переживал трудные дни. Баку был отрезан от Советской России. В городе наступил голод. Сложная обстановка усугублялась наступлением на Баку германо-турецких войск. Меньшевистско-эсеровские предатели предложили принять «помощь» англичан. Бакинские коммунисты во главе с С. Шаумяном на заседании Бакинского Совета разоблачили их преступные замыслы. Но меньшевикам и эсерам удалось собрать незначительное большинство голосов.
    Контрреволюционные силы с помощью английских империалистов захватили власть в городе. Бакинские комиссары были арестованы, вывезены в пески Туркменистана и расстреляны. В результате побед, одержанных Советской властью на всей территории страны, с помощью братского русского народа бакинский пролетариат свергнул власть контрреволюции. Баку стал советским...
    Дополнительная информация: Релиз:
    Автор рипа: pmv
    Исходник найден в сети.
    IMDb = 6,3/10 from 26 users -
    Кинопоиск = - (23) -
    * Информация из Аннотированного каталога Советских художественных фильмов за 1918-1935г.г.
    1056. ДВАДЦАТЬ ШЕСТЬ КОМИССАРОВ. Ист.-рев., 8 ч., 3000 м, Азеркино, 1932 г.
    ВЭ 19.II 1933 г.
    Авторы сценария: Александр Ржешевский, Николос (Николай) Шенгелая, Амирагов
    Режиссёр: Николос (Николай) Шенгелая
    Сорежиссёр: Степан Кеворков
    Оператор: Евгений Шнейдер
    Художник: Виктор Аден
    * Премьера (СССР): 19 февраля 1933
    * Премьера (мир): 30 июня 1933 (США), 16 апреля 1981 (Нидерланды)

    * Фильм был восстановлен в 1983 году специалистами творческого объединения дубляжа и восстановления фильмов киностудии «Грузия-фильм». Большую роль в раскрытии авторского замысла и драматургии произведения сыграла музыка композитора Дм. Шостаковича, использованная при восстановлении киноленты.
    ПРОСЬБА к СКАЧАВШИМ. НЕ УХОДИТЕ С РАЗДАЧИ, ПОМОГИТЕ ДРУГИМ СКАЧАТЬ!!!
    ВНИМАНИЕ!!! РИП ФОРМАТА mkv (кодек H.264) ВОСПРОИЗВОДИТСЯ НЕ НА ВСЕХ БЫТОВЫХ ВИДЕОПЛЕЕРАХ!!!
    Семпл: http://multi-up.com/1075360
    Качество видео: WEBRip-AVC
    Формат видео: MKV
    Видео: AVC (H.264), 640x480 (1.33:1), 25.00 fps, ~1615 Kbps avg, 0.210 Bits/Pixel
    Аудио: AC3, 48 KHz, stereo (2 ch), 192 Kbps

    MediaInfo

    General
    Complete name : D:\torrent\Dvadtsat shest komissarov (1932).mkv
    Format : Matroska
    File size : 1.36 GiB
    Duration : 1h 45mn
    Overall bit rate : 1 844 Kbps
    Encoded date : UTC 2015-11-14 03:25:15
    Writing application : mkvmerge v8.5.2 ('Crosses') 64bit
    Writing library : libebml v1.3.3 + libmatroska v1.4.4
    Video
    ID : 1
    Format : AVC
    Format/Info : Advanced Video Codec
    Format profile : High@L4.1
    Format settings, CABAC : Yes
    Format settings, ReFrames : 16 frames
    Muxing mode : Container profile=Unknown@4.1
    Codec ID : V_MPEG4/ISO/AVC
    Duration : 1h 45mn
    Bit rate : 1 615 Kbps
    Nominal bit rate : 1 650 Kbps
    Width : 640 pixels
    Height : 480 pixels
    Display aspect ratio : 4:3
    Frame rate : 25.000 fps
    Resolution : 8 bits
    Colorimetry : 4:2:0
    Scan type : Progressive
    Bits/(Pixel*Frame) : 0.210
    Stream size : 1.19 GiB (88%)
    Writing library : x264 core 146 r2538 121396c
    Encoding settings : cabac=1 / ref=16 / deblock=1:0:0 / analyse=0x3:0x133 / me=umh / subme=10 / psy=1 / psy_rd=1.00:0.00 / mixed_ref=1 / me_range=24 / chroma_me=1 / trellis=2 / 8x8dct=1 / cqm=0 / deadzone=21,11 / fast_pskip=1 / chroma_qp_offset=-2 / threads=30 / lookahead_threads=3 / sliced_threads=0 / nr=0 / decimate=1 / interlaced=0 / bluray_compat=0 / constrained_intra=0 / bframes=8 / b_pyramid=2 / b_adapt=2 / b_bias=0 / direct=3 / weightb=1 / open_gop=0 / weightp=2 / keyint=250 / keyint_min=25 / scenecut=40 / intra_refresh=0 / rc_lookahead=60 / rc=2pass / mbtree=1 / bitrate=1650 / ratetol=1.0 / qcomp=0.60 / qpmin=0 / qpmax=69 / qpstep=4 / cplxblur=20.0 / qblur=0.5 / ip_ratio=1.40 / aq=1:1.00
    Audio
    ID : 2
    Format : AC-3
    Format/Info : Audio Coding 3
    Codec ID : A_AC3
    Duration : 1h 45mn
    Bit rate mode : Constant
    Bit rate : 192 Kbps
    Channel(s) : 2 channels
    Channel positions : Front: L R
    Sampling rate : 48.0 KHz
    Stream size : 145 MiB (10%)

    Скриншоты

    Скачать .torrent

    Скачать торрент-файл бесплатно и на максимальной скорости!

    Как скачивать? · Что такое торрент? · Рейтинг и ограничения

    !ВНИМАНИЕ!
    Сайт не распространяет и не хранит электронные версии произведений, а занимается лишь лишь предоставлением доступа к создаваемому пользователями каталогу ссылок на торрент-файлы, которые содержат только списки хеш-сумм, убедительная просьба с жалобами обращаться напрямую к пользователю. Файлы для обмена на трекере предоставлены пользователями сайта, и администрация не несёт ответственности за их содержание. Просьба не заливать файлы, защищенные авторскими правами, а также файлы нелегального содержания!


    _________________
    [Профиль] [ЛС]
    Показать сообщения:    
    Ответить на тему

    Текущее время: Сегодня, в 05:27

    Часовой пояс: GMT + 2



    Вы не можете начинать темы
    Вы не можете отвечать на сообщения
    Вы не можете редактировать свои сообщения
    Вы не можете удалять свои сообщения
    Вы не можете голосовать в опросах
    Вы не можете прикреплять файлы к сообщениям
    Вы не можете скачивать файлы