Register  ·  Log in
Forgot password?

  • Три дня в июле (Каридин Акматалиев) [1977, Мелодрама, TVRip]

    Reply to topic
    Author Message


    Post 03-Dec-2015 01:13



    Три дня в июле
    Жанр: Мелодрама
    Год выпуска: 1977
    Продолжительность: 01:07:59

    Режиссёр: Каридин Акматалиев
    В ролях: Болот Бейшеналиев, Гульсара Аджибекова, Гульнара Султаналиева, Сыргак Кожомкулов, Альгимантас Видугирис, Советбек Джумадылов, Адис Сейталиев
    Описание: По мотивам рассказов Ашима Джакыпбекова.
    Встреча Алыма и Салимы воскресила в памяти их полудетскую любовь. Сейчас это разные люди. Салима счастлива: у нее семья, любимая работа. У Алыма не все ладно. Встреча с Салимой, воспоминание о детстве, ощущение дыхания юности заставило понять Алыма, что как личность он не состоялся.
    Фильм раскрывает немаловажные аспекты духовного мира наших современников.

    Доп. информация:

    Качество видео: TVRip
    Формат видео: AVI
    Видео: 720x544 (1.32:1), 25 fps, XviD MPEG-4 ~1301 kbps avg, 0.13 bit/pixel
    Аудио: 48 kHz, MPEG Layer 3, 2 ch, ~128.00 kbps avg


    Complete name : Tri.dnya.v.iyule.1977.TVRip.fenixclub.avi
    Format : AVI
    Format/Info : Audio Video Interleave
    File size : 700 MiB
    Duration : 1h 7mn
    Overall bit rate : 1 440 Kbps
    Writing application : VirtualDubModRus (build 2542/release)
    Writing library : VirtualDub build 32842/release
    ID : 0
    Format : MPEG-4 Visual
    Format profile : Advanced Simple@L5
    Format settings, BVOP : Yes
    Format settings, QPel : No
    Format settings, GMC : No warppoints
    Format settings, Matrix : Default (MPEG)
    Codec ID : XVID
    Codec ID/Hint : XviD
    Duration : 1h 7mn
    Bit rate : 1 302 Kbps
    Width : 720 pixels
    Height : 544 pixels
    Display aspect ratio : 4:3
    Frame rate : 25.000 fps
    Color space : YUV
    Chroma subsampling : 4:2:0
    Bit depth : 8 bits
    Scan type : Progressive
    Compression mode : Lossy
    Bits/(Pixel*Frame) : 0.133
    Stream size : 633 MiB (90%)
    Writing library : XviD 73
    ID : 1
    Format : MPEG Audio
    Format version : Version 1
    Format profile : Layer 3
    Mode : Joint stereo
    Mode extension : MS Stereo
    Codec ID : 55
    Codec ID/Hint : MP3
    Duration : 1h 7mn
    Bit rate mode : Constant
    Bit rate : 128 Kbps
    Channel(s) : 2 channels
    Sampling rate : 48.0 KHz
    Compression mode : Lossy
    Stream size : 62.2 MiB (9%)
    Alignment : Split accross interleaves
    Interleave, duration : 40 ms (1.00 video frame)
    Interleave, preload duration : 500 ms


    Download .torrent

    Download free and at maximum speed!

    How to Download? · What is a torrent? · Ratings and Limitations

    The site does not extend and does not store electronic(digital) versions of products, and only gives access to a reference catalogue created by users on torrent-files which contain only lists of the hash-sums, the earnest entreaty, with complaints(abuse) to access directly to the user. Files for an exchange on tracker are given by users of a site, and the administration does not bear the responsibility for their maintenance. The request to not fill in the files protected by copyrights, and also files of the illegal maintenance!

    [Profile] [PM]
    Display posts from previous:    
    Reply to topic

    The time now is: Today 11:58

    All times are GMT + 3 Hours

    You cannot post new topics in this forum
    You cannot reply to topics in this forum
    You cannot edit your posts in this forum
    You cannot delete your posts in this forum
    You cannot vote in polls in this forum
    You cannot attach files in this forum
    You cannot download files in this forum