BitTorrentTracker PerecTracker.org
BitTorrentTracker PerecTracker.org
    
Регистрация  ·  Вход
 
 · 
Забыли пароль?

  • Внимание, ведьмы! (Александр Амелин) [1990, комедия, DVDRip-AVC]

    Ответить на тему
     
    Автор Сообщение

    Light

    Создавать темы 03-Дек-2015 00:13

           

    [Цитировать]

    Внимание, ведьмы!
    Жанр: комедия
    Год выпуска: 1990
    Продолжительность: 01:16:59
    Cубтитры: нет
    Режиссер: Александр Амелин
    В ролях: Александр Калугин, Татьяна Лютаева, Александра Свенская, Любовь Малиновская, Петр Бенюк, Юрий Медведев, Андрей Булавцев, Алексей Моисеев, Павел Кормунин, Рудольф Мухин...
    Описание: По мотивам повести Михаила Казовского "Пояс Титимити". Участковый инспектор Павел Храпунцов в своем микрорайоне наблюдает за действиями секты с мистическим уклоном. В поступающих в милицию сигналах описываются действия некой Клементины, умеющей превращать людей в зверей и растения. Убежденный материалист Храпунцов не сразу понимает сложный мир Клементины и ее друзей...
    Сэмпл: http://multi-up.com/1075540
    Качество видео: DVDRip-AVC Исходник
    Формат видео: MKV
    Видео: 692x576 (1.281) @ 738x576, 25.000 fps, AVC, ~2435 Kbps, 0.244 bits/pixel
    Аудио: Russian, 48.0 KHz, AC3, 2 ch, 256 Kbps

    MediaInfo

    General
    Unique ID : 240167597324477588086531921968373517786 (0xB4AE98C3AEAA4306BC06C0B3B5394DDA)
    Complete name : C:\Внимание ведьмы.mkv
    Format : Matroska
    Format version : Version 4 / Version 2
    File size : 1.45 GiB
    Duration : 1h 16mn
    Overall bit rate : 2 693 Kbps
    Encoded date : UTC 2015-08-08 06:12:02
    Writing application : mkvmerge v8.1.0 ('Psychedelic Postcard') 64bit
    Writing library : libebml v1.3.1 + libmatroska v1.4.2
    DURATION : 01:16:58.592000000
    NUMBER_OF_FRAMES : 144331
    NUMBER_OF_BYTES : 147794944
    _STATISTICS_WRITING_APP : mkvmerge v8.1.0 ('Psychedelic Postcard') 64bit
    _STATISTICS_WRITING_DATE_UT : 2015-08-08 06:12:02
    _STATISTICS_TAGS : BPS DURATION NUMBER_OF_FRAMES NUMBER_OF_BYTES
    Video
    ID : 1
    Format : AVC
    Format/Info : Advanced Video Codec
    Format profile : High@L3.1
    Format settings, CABAC : Yes
    Format settings, ReFrames : 10 frames
    Codec ID : V_MPEG4/ISO/AVC
    Duration : 1h 16mn
    Bit rate : 2 435 Kbps
    Width : 692 pixels
    Height : 576 pixels
    Display aspect ratio : 1.281
    Frame rate mode : Constant
    Frame rate : 25.000 fps
    Color space : YUV
    Chroma subsampling : 4:2:0
    Bit depth : 8 bits
    Scan type : Progressive
    Bits/(Pixel*Frame) : 0.244
    Stream size : 1.28 GiB (89%)
    Writing library : x264 core 146 r2538 121396c
    Encoding settings : cabac=1 / ref=10 / deblock=1:-1:-1 / analyse=0x3:0x133 / me=umh / subme=10 / psy=1 / psy_rd=1.00:0.10 / mixed_ref=1 / me_range=32 / chroma_me=1 / trellis=2 / 8x8dct=1 / cqm=0 / deadzone=21,11 / fast_pskip=0 / chroma_qp_offset=-3 / threads=6 / lookahead_threads=1 / sliced_threads=0 / nr=0 / decimate=1 / interlaced=0 / bluray_compat=0 / constrained_intra=0 / bframes=10 / b_pyramid=2 / b_adapt=2 / b_bias=0 / direct=3 / weightb=1 / open_gop=0 / weightp=2 / keyint=250 / keyint_min=25 / scenecut=40 / intra_refresh=0 / rc_lookahead=50 / rc=2pass / mbtree=1 / bitrate=2435 / ratetol=1.0 / qcomp=0.60 / qpmin=0 / qpmax=69 / qpstep=4 / cplxblur=20.0 / qblur=0.5 / ip_ratio=1.40 / aq=1:1.00
    Language : Russian
    Default : Yes
    Forced : No
    Audio
    ID : 2
    Format : AC-3
    Format/Info : Audio Coding 3
    Mode extension : CM (complete main)
    Format settings, Endianness : Big
    Codec ID : A_AC3
    Duration : 1h 16mn
    Bit rate mode : Constant
    Bit rate : 256 Kbps
    Channel(s) : 2 channels
    Channel positions : Front: L R
    Sampling rate : 48.0 KHz
    Compression mode : Lossy
    Stream size : 141 MiB (10%)
    Language : Russian
    Default : Yes
    Forced : No
    Menu
    00:00:00.000 : :Chapter 01
    00:06:31.120 : :Chapter 02
    00:15:38.800 : :Chapter 03
    00:24:44.080 : :Chapter 04
    00:32:41.680 : :Chapter 05
    00:42:19.120 : :Chapter 06
    00:50:21.040 : :Chapter 07
    00:57:55.600 : :Chapter 08
    01:03:45.520 : :Chapter 09
    01:16:57.520 : :Chapter 10

    Скриншоты

    Скачать .torrent

    Скачать торрент-файл бесплатно и на максимальной скорости!

    Как скачивать? · Что такое торрент? · Рейтинг и ограничения

    !ВНИМАНИЕ!
    Сайт не распространяет и не хранит электронные версии произведений, а занимается лишь лишь предоставлением доступа к создаваемому пользователями каталогу ссылок на торрент-файлы, которые содержат только списки хеш-сумм, убедительная просьба с жалобами обращаться напрямую к пользователю. Файлы для обмена на трекере предоставлены пользователями сайта, и администрация не несёт ответственности за их содержание. Просьба не заливать файлы, защищенные авторскими правами, а также файлы нелегального содержания!


    _________________
    [Профиль] [ЛС]
    Показать сообщения:    
    Ответить на тему

    Текущее время: Сегодня, в 20:54

    Часовой пояс: GMT + 2



    Вы не можете начинать темы
    Вы не можете отвечать на сообщения
    Вы не можете редактировать свои сообщения
    Вы не можете удалять свои сообщения
    Вы не можете голосовать в опросах
    Вы не можете прикреплять файлы к сообщениям
    Вы не можете скачивать файлы