BitTorrentTracker PerecTracker.org
BitTorrentTracker PerecTracker.org
    
Регистрация  ·  Вход
 
 · 
Забыли пароль?

  • Ленинград, ноябрь (Олег Морозов, Андреас Шмидт) [1990, драма, DVB]

    Ответить на тему
     
    Автор Сообщение

    Light

    Создавать темы 03-Дек-2015 00:13

           

    [Цитировать]

    Ленинград, ноябрь
    Жанр: драма
    Год выпуска: 1990
    Продолжительность: 01:22:02
    Режиссёр: Олег Морозов, Андреас Шмидт
    В ролях: Григорий Гладий, Игорь Кечаев, Елена Величко, Наталья Коляканова, Никита Михайловский, Кристина Кениг, Миша Дементьев, Борис Юхананов, Геннадий Митрофанов, Георгий Тейх
    Описание: Узнав о тяжелой болезни отца, Макс приезжает из Кельна в Ленинград и очень надеется на то, что отец простит ему женитьбу на немке. Но пережив войну, блокаду, смерть близких, отец не в состоянии понять сына.
    Доп. информация: Запись потока *.ts со спутника ЯМАЛ 401, 90° в.д.., ремукс в *.mkv программой VideoReDo.
    Качество видео: DVB
    Формат видео: MKV
    Видео: MPEG Video, 704(768)x576 (4:3), 25,000 кадров/сек, 4383 Кбит/сек
    Аудио: MPEG Audio, 48,0 КГц, 192 Кбит/сек, 1 канал

    MediaInfo

    Общее
    Уникальный идентификатор : 245252104458750423604741119616152990949 (0xB881D652174C4E2420CD7AA5C92F74E5)
    Полное имя : D:\MPG\ЛЕНИНГРАД НОЯБРЬ (YAMAL).mkv
    Формат : Matroska
    Версия формата : Version 2
    Размер файла : 2,67 Гбайт
    Продолжительность : 1 ч. 22 м.
    Общий поток : 4668 Кбит/сек
    Программа кодирования : Lavf52.64.2
    Библиотека кодирования : Lavf52.64.2
    Видео
    Идентификатор : 1
    Формат : MPEG Video
    Версия формата : Version 2
    Профиль формата : Main@Main
    Параметр BVOP формата : Нет
    Параметр матрицы формата : Выборочная
    Идентификатор кодека : V_MPEG2
    Идентификатор кодека/Информация : MPEG 1 or 2 Video
    Продолжительность : 1 ч. 22 м.
    Битрейт : 4383 Кбит/сек
    Максимальный битрейт : 4478 Кбит/сек
    Ширина : 704 пикселя
    Высота : 576 пикселей
    Соотношение сторон : 4:3
    Соотношение сторон в оригинале : 4:3
    Режим частоты кадров : Постоянный
    Частота кадров : 25,000 кадров/сек
    Стандарт вещания : PAL
    Цветовое пространство : YUV
    Субдискретизация насыщенности : 4:2:0
    Битовая глубина : 8 бит
    Тип развёртки : Чересстрочная
    Порядок развёртки : Верхнее поле первое
    Метод сжатия : С потерями
    Бит/(Пиксели*Кадры) : 0.432
    Временной код первого кадра : 00:00:00:00
    Оригинал временного кода : Group of pictures header
    Размер потока : 2,51 Гбайт (94%)
    Default : Да
    Forced : Нет
    Аудио
    Идентификатор : 2
    Формат : MPEG Audio
    Версия формата : Version 1
    Профиль формата : Layer 2
    Идентификатор кодека : A_MPEG/L2
    Идентификатор кодека/Подсказка : MP2
    Продолжительность : 1 ч. 22 м.
    Вид битрейта : Постоянный
    Битрейт : 192 Кбит/сек
    Каналы : 1 канал
    Частота : 48,0 КГц
    Метод сжатия : С потерями
    Задержка видео : -1 м. 5 с.
    Размер потока : 113 Мбайт (4%)
    Язык : Russian
    Default : Да
    Forced : Нет

    Скриншоты

    Скачать .torrent

    Скачать торрент-файл бесплатно и на максимальной скорости!

    Как скачивать? · Что такое торрент? · Рейтинг и ограничения

    !ВНИМАНИЕ!
    Сайт не распространяет и не хранит электронные версии произведений, а занимается лишь лишь предоставлением доступа к создаваемому пользователями каталогу ссылок на торрент-файлы, которые содержат только списки хеш-сумм, убедительная просьба с жалобами обращаться напрямую к пользователю. Файлы для обмена на трекере предоставлены пользователями сайта, и администрация не несёт ответственности за их содержание. Просьба не заливать файлы, защищенные авторскими правами, а также файлы нелегального содержания!


    _________________
    [Профиль] [ЛС]
    Показать сообщения:    
    Ответить на тему

    Текущее время: Сегодня, в 20:41

    Часовой пояс: GMT + 2



    Вы не можете начинать темы
    Вы не можете отвечать на сообщения
    Вы не можете редактировать свои сообщения
    Вы не можете удалять свои сообщения
    Вы не можете голосовать в опросах
    Вы не можете прикреплять файлы к сообщениям
    Вы не можете скачивать файлы