BitTorrentTracker PerecTracker.org
BitTorrentTracker PerecTracker.org
    
Регистрация  ·  Вход
 
 · 
Забыли пароль?

  • Крупный разговор (Геннадий Глаголев) [1980, драма, DVB]

    Ответить на тему
     
    Автор Сообщение

    Light

    Создавать темы 03-Дек-2015 00:13

           

    [Цитировать]

    Крупный разговор
    Жанр: драма
    Год выпуска: 1980
    Продолжительность: 01:18:40
    Режиссёр: Геннадий Глаголев
    В ролях: Борислав Брондуков, Майя Булгакова, Татьяна Кудрявцева, Светлана Шершнева, Елизавета Никищихина, Александр Голобородько, Юрий Кузьменко, Иван Шабалтас, Иван Сидоров, Александр Гава, Богдан Бенюк, Виктор Шульгин, Иван Савкин, Дмитрий Иосифов, Владимир Наумцев, Юрий Гусев, Вячеслав Воронин, Евгений Стежко, Баадур Цуладзе, Анна Надточий
    Описание: Бригадиру небольшого строительного коллектива большой стройки надоело наблюдать за халатностью и откровенным разгильдяйством - и герой решился на прямой диалог с теми, от которых зависит зароботок членов его бригады...
    Семпл: http://sendfile.su/1174567
    Качество видео: DVB
    Формат видео: MPEG-PS
    Видео: MPEG2 Video 720x576 (4:3) 25,000 кадров/сек 3085 Кбит/сек (15,0 Мбит/сек)
    Аудио: Русский MPEG Audio 48,0 КГц 2 канала 192 Кбит/сек

    MediaInfo

    Общее
    Полное имя : E:\Torrents\СВОИ\Крупный разговор.mpg
    Формат : MPEG-PS
    Размер файла : 1,84 Гбайт
    Продолжительность : 1 ч. 18 м.
    Режим общего битрейта : Переменный
    Общий поток : 3344 Кбит/сек
    Библиотека кодирования : (c) 1998-2010 Womble Multimedia, Inc. / MPEG Video Wizard DVD 5.0.0.114 (01/2010) / Jul 5 2010
    Видео
    Идентификатор : 224 (0xE0)
    Формат : MPEG Video
    Версия формата : Version 2
    Профиль формата : Main@Main
    Параметр BVOP формата : Да
    Параметр матрицы формата : Выборочная
    Параметр GOP формата : Variable
    Format_Settings_PictureStructure : Frame
    Продолжительность : 1 ч. 18 м.
    Вид битрейта : Переменный
    Битрейт : 3085 Кбит/сек
    Максимальный битрейт : 15,0 Мбит/сек
    Ширина : 720 пикселей
    Высота : 576 пикселей
    Соотношение сторон : 4:3
    Частота кадров : 25,000 кадров/сек
    Стандарт вещания : PAL
    Цветовое пространство : YUV
    Субдискретизация насыщенности : 4:2:0
    Битовая глубина : 8 бит
    Тип развёртки : Чересстрочная
    Порядок развёртки : Верхнее поле первое
    Метод сжатия : С потерями
    Бит/(Пиксели*Кадры) : 0.298
    Временной код первого кадра : 00:00:00:00
    Оригинал временного кода : Group of pictures header
    Размер потока : 1,70 Гбайт (92%)
    Библиотека кодирования : (c) 1998-2010 Womble Multimedia, Inc. / MPEG Video Wizard DVD 5.0.0.114 (01/2010) / Jul 5 2010
    Аудио
    Идентификатор : 192 (0xC0)
    Формат : MPEG Audio
    Версия формата : Version 1
    Профиль формата : Layer 2
    Продолжительность : 1 ч. 18 м.
    Вид битрейта : Постоянный
    Битрейт : 192 Кбит/сек
    Каналы : 2 канала
    Частота : 48,0 КГц
    Метод сжатия : С потерями
    Размер потока : 108 Мбайт (6%)
    Меню

    Скриншоты


    Скачать .torrent

    Скачать торрент-файл бесплатно и на максимальной скорости!

    Как скачивать? · Что такое торрент? · Рейтинг и ограничения

    !ВНИМАНИЕ!
    Сайт не распространяет и не хранит электронные версии произведений, а занимается лишь лишь предоставлением доступа к создаваемому пользователями каталогу ссылок на торрент-файлы, которые содержат только списки хеш-сумм, убедительная просьба с жалобами обращаться напрямую к пользователю. Файлы для обмена на трекере предоставлены пользователями сайта, и администрация не несёт ответственности за их содержание. Просьба не заливать файлы, защищенные авторскими правами, а также файлы нелегального содержания!


    _________________
    [Профиль] [ЛС]
    Показать сообщения:    
    Ответить на тему

    Текущее время: Сегодня, в 21:59

    Часовой пояс: GMT + 2



    Вы не можете начинать темы
    Вы не можете отвечать на сообщения
    Вы не можете редактировать свои сообщения
    Вы не можете удалять свои сообщения
    Вы не можете голосовать в опросах
    Вы не можете прикреплять файлы к сообщениям
    Вы не можете скачивать файлы