BitTorrentTracker PerecTracker.org
BitTorrentTracker PerecTracker.org
    
Регистрация  ·  Вход
 
 · 
Забыли пароль?

  • Бэла / Человек-коршун (Владимир Барский) [1927, Драма, экранизация, немое кино, WEBRip]

    Ответить на тему
     
    Автор Сообщение

    Light

    Создавать темы 03-Дек-2015 00:13

           

    [Цитировать]

    Бэла / Человек-коршун
    Жанр: Драма, экранизация
    Страна: СССР
    Студия: Госкинпром Грузии
    Год выпуска: 1927
    Продолжительность: 01:12:27.680 (108692 frames)
    Режиссёр: Владимир Барский
    В ролях:
    Николай Прозоровский … Печорин, прапорщик
    Тина Мачавариани … Бэла
    Илико Мерабишвили … Азамат, брат Бэлы
    Александр Такайшвили … Казбич
    Васо (Василий) Арабидзе … отец Бэлы
    Михаил Корели … казначей крепости, укрепления Евгениевское
    Белла Белецкая … жена казначея, дама весьма увлекающаяся
    Владимир Оболенский … Максим Максимыч, комендант укрепления
    Н.Татосова … Гюльнар
    Елена Чарская … мать Бэлы
    Т.Вишневская … сестра Бэлы
    Гиви Сарчимелидзе … курьер
    Описание: Драма по одноименной главе романа М.Ю.Лермонтова «Герой нашего времени».
    Печорин служит в глухой крепости. Однажды в соседнем ауле на свадьбе герой встречает Бэлу, дочь местного князя. С помощью ее брата Азамата Печорин увозит девушку в крепость. За это он дарит Азамату коня, которого крадет у разбойника Казбича. Увлечение Печорина вскоре проходит, и он все чаще теперь проводит время на охоте. В одну из таких отлучек Казбич подстерегает Бэлу и убивает ее.
    Доп. информация: Релиз:
    Автор рипа: pmv
    Исходник найден в сети – спасибо за помощь agape & serdar202
    IMDb = - -
    Кинопоиск = - (3) -
    * Информация из Аннотированного каталога Советских художественных фильмов за 1918-1935г.г.
    427. БЭЛА («Человек-коршун»). Экранизация, 8 ч., 2269 м, Госкинпром Грузия, 1927 г.,
    ВЭ 21.III.1927 г.
    Автор сценария и режиссёр: Владимир Барский
    Оператор: Антон Поликевич, Фердинанд Гегеле
    Художники: Фёдор Пуш, Валериан Сидамон-Эристов
    Консультант – художник париж-академии: Поликарп Козакевич
    Ассистент: Г. Гомаров
    * Премьера (СССР): 21 марта 1927
    ПРОСЬБА к СКАЧАВШИМ. НЕ УХОДИТЕ С РАЗДАЧИ, ПОМОГИТЕ ДРУГИМ СКАЧАТЬ!!!
    Качество видео: WEBRip
    Формат видео: AVI
    Видео: 720x544 (1.32:1), 25 fps, XviD build 73 ~2020 kbps avg, 0.21 bit/pixel
    Аудио: 44.100 kHz, MPEG Layer 3, 2 ch, ~128.00 kbps avg

    MediaInfo

    General
    Complete name : D:\torrents\Бэла (1926).avi
    Format : AVI
    Format/Info : Audio Video Interleave
    File size : 1.09 GiB
    Duration : 1h 12mn
    Overall bit rate : 2 158 Kbps
    Writing application : VirtualDubModRus 1.5.10.2 (build 2542/release)
    Writing library : VirtualDubMod build 2542/release
    Video
    ID : 0
    Format : MPEG-4 Visual
    Format profile : Advanced Simple@L5
    Format settings, BVOP : Yes
    Format settings, QPel : No
    Format settings, GMC : No warppoints
    Format settings, Matrix : Default (H.263)
    Codec ID : XVID
    Codec ID/Hint : XviD
    Duration : 1h 12mn
    Bit rate : 2 020 Kbps
    Width : 720 pixels
    Height : 544 pixels
    Display aspect ratio : 4:3
    Frame rate : 25.000 fps
    Resolution : 8 bits
    Colorimetry : 4:2:0
    Scan type : Progressive
    Bits/(Pixel*Frame) : 0.206
    Stream size : 1.02 GiB (94%)
    Writing library : XviD 73
    Audio
    ID : 1
    Format : MPEG Audio
    Format version : Version 1
    Format profile : Layer 3
    Format_Settings_Mode : Joint stereo
    Codec ID : 55
    Codec ID/Hint : MP3
    Duration : 1h 12mn
    Bit rate mode : Constant
    Bit rate : 128 Kbps
    Channel(s) : 2 channels
    Sampling rate : 44.1 KHz
    Video delay : 9ms
    Stream size : 66.3 MiB (6%)
    Alignment : Split accross interleaves
    Interleave, duration : 40 ms (1.00 video frame)
    Interleave, preload duration : 500 ms

    Скриншот с названием фильма

    Скриншоты

    Скачать .torrent

    Скачать торрент-файл бесплатно и на максимальной скорости!

    Как скачивать? · Что такое торрент? · Рейтинг и ограничения

    !ВНИМАНИЕ!
    Сайт не распространяет и не хранит электронные версии произведений, а занимается лишь лишь предоставлением доступа к создаваемому пользователями каталогу ссылок на торрент-файлы, которые содержат только списки хеш-сумм, убедительная просьба с жалобами обращаться напрямую к пользователю. Файлы для обмена на трекере предоставлены пользователями сайта, и администрация не несёт ответственности за их содержание. Просьба не заливать файлы, защищенные авторскими правами, а также файлы нелегального содержания!


    _________________
    [Профиль] [ЛС]
    Показать сообщения:    
    Ответить на тему

    Текущее время: Сегодня, в 19:31

    Часовой пояс: GMT + 2



    Вы не можете начинать темы
    Вы не можете отвечать на сообщения
    Вы не можете редактировать свои сообщения
    Вы не можете удалять свои сообщения
    Вы не можете голосовать в опросах
    Вы не можете прикреплять файлы к сообщениям
    Вы не можете скачивать файлы