BitTorrentTracker PerecTracker.org
BitTorrentTracker PerecTracker.org
    
Регистрация  ·  Вход
 
 · 
Забыли пароль?

  • Земля отцов (Шакен Айманов) [1966, Киноповесть, DVDRip-AVC]

    Ответить на тему
     
    Автор Сообщение

    Light

    Создавать темы 03-Дек-2015 00:13

           

    [Цитировать]

    Земля отцов
    Жанр: Киноповесть
    Год выпуска: 1966
    Продолжительность: 01:26:11
    Режиссёр: Шакен Айманов
    В ролях: Елубай (Елеубай) Умурзаков, Мурат Ахмадиев, В. Шевцов (II), Юрий Померанцев, Т. Котова
    Описание: После окончания войны старик отправляется с внуком на север — где-то под Ленинградом похоронен его сын. Они должны похоронить его в казахской степи — таков закон предков. Но добравшись до могилы, герои узнают, что он похоронен с теми, кто был с ним в последнем бою.

    Релиз:

    Качество видео: DVDRip-AVC
    Формат видео: MKV
    Видео: AVC, 2200 kbps, 698 x 572 @ 744 x 572, 25 fps
    Аудио: Русский, AC-3, 224 kbps 2 ch, 48 kHz
    Субтитры: Английский, VobSub

    MediaInfo

    Общее
    Уникальный идентификатор : 208024054653184603025955201420558758151 (0x9C7FF9C0FBB9BF3799F612C14CFE7107)
    Полное имя : D:\zzz_Bardachek\Разное такое\Кино\Земля отцов-DVDRip-AVC-MG.mkv
    Формат : Matroska
    Версия формата : Version 4 / Version 2
    Размер файла : 1,46 Гбайт
    Продолжительность : 1 ч. 26 м.
    Общий поток : 2424 Кбит/сек
    Дата кодирования : UTC 2015-11-19 03:16:17
    Программа кодирования : mkvmerge v8.5.0 ('Vanishing Act') 32bit
    Библиотека кодирования : libebml v1.3.1 + libmatroska v1.4.2
    DURATION : 01:25:58.501000000
    NUMBER_OF_FRAMES : 495
    NUMBER_OF_BYTES : 1948452
    _STATISTICS_WRITING_APP : mkvmerge v8.5.0 ('Vanishing Act') 32bit
    _STATISTICS_WRITING_DATE_UTC : 2015-11-19 03:16:17
    _STATISTICS_TAGS : BPS DURATION NUMBER_OF_FRAMES NUMBER_OF_BYTES
    Видео
    Идентификатор : 1
    Формат : AVC
    Формат/Информация : Advanced Video Codec
    Профиль формата : High@L4.1
    Параметр CABAC формата : Да
    Параметр ReFrames формата : 9 кадров
    Идентификатор кодека : V_MPEG4/ISO/AVC
    Продолжительность : 1 ч. 26 м.
    Битрейт : 2200 Кбит/сек
    Ширина : 698 пикселей
    Высота : 572 пикселя
    Соотношение сторон : 4:3
    Режим частоты кадров : Постоянный
    Частота кадров : 25,000 кадров/сек
    Цветовое пространство : YUV
    Субдискретизация насыщенности : 4:2:0
    Битовая глубина : 8 бит
    Тип развёртки : Прогрессивная
    Бит/(Пиксели*Кадры) : 0.220
    Размер потока : 1,30 Гбайт (89%)
    Заголовок : For perectracker.org
    Библиотека кодирования : x264 core 146 r2538 121396c
    Настройки программы : cabac=1 / ref=9 / deblock=1:-1:-1 / analyse=0x3:0x133 / me=umh / subme=9 / psy=1 / psy_rd=1.00:0.15 / mixed_ref=1 / me_range=32 / chroma_me=1 / trellis=2 / 8x8dct=1 / cqm=0 / deadzone=21,11 / fast_pskip=0 / chroma_qp_offset=-3 / threads=6 / lookahead_threads=1 / sliced_threads=0 / nr=0 / decimate=1 / interlaced=0 / bluray_compat=0 / constrained_intra=0 / bframes=7 / b_pyramid=2 / b_adapt=2 / b_bias=0 / direct=3 / weightb=1 / open_gop=0 / weightp=2 / keyint=250 / keyint_min=25 / scenecut=40 / intra_refresh=0 / rc_lookahead=40 / rc=2pass / mbtree=1 / bitrate=2200 / ratetol=1.0 / qcomp=0.60 / qpmin=10 / qpmax=51 / qpstep=4 / cplxblur=20.0 / qblur=0.5 / ip_ratio=1.40 / aq=1:1.00
    Язык : Russian
    Default : Да
    Forced : Нет
    Аудио
    Идентификатор : 2
    Формат : AC-3
    Формат/Информация : Audio Coding 3
    Расширение режима : CM (complete main)
    Параметр Endianness формата : Big
    Идентификатор кодека : A_AC3
    Продолжительность : 1 ч. 26 м.
    Вид битрейта : Постоянный
    Битрейт : 224 Кбит/сек
    Каналы : 2 канала
    Расположение каналов : Front: L R
    Частота : 48,0 КГц
    Метод сжатия : С потерями
    Размер потока : 138 Мбайт (9%)
    Заголовок : AC3-2 канала
    Язык : Russian
    Default : Да
    Forced : Нет
    Текст
    Идентификатор : 3
    Формат : VobSub
    Идентификатор кодека : S_VOBSUB
    Идентификатор кодека/Информация : Picture based subtitle format used on DVDs
    Заголовок : VobSub
    Язык : English
    Default : Нет
    Forced : Нет

    Скриншот c названием фильма

    Скриншоты

    Спасибо всем!
    Скачать .torrent

    Скачать торрент-файл бесплатно и на максимальной скорости!

    Как скачивать? · Что такое торрент? · Рейтинг и ограничения

    !ВНИМАНИЕ!
    Сайт не распространяет и не хранит электронные версии произведений, а занимается лишь лишь предоставлением доступа к создаваемому пользователями каталогу ссылок на торрент-файлы, которые содержат только списки хеш-сумм, убедительная просьба с жалобами обращаться напрямую к пользователю. Файлы для обмена на трекере предоставлены пользователями сайта, и администрация не несёт ответственности за их содержание. Просьба не заливать файлы, защищенные авторскими правами, а также файлы нелегального содержания!


    _________________
    [Профиль] [ЛС]
    Показать сообщения:    
    Ответить на тему

    Текущее время: Сегодня, в 18:25

    Часовой пояс: GMT + 2



    Вы не можете начинать темы
    Вы не можете отвечать на сообщения
    Вы не можете редактировать свои сообщения
    Вы не можете удалять свои сообщения
    Вы не можете голосовать в опросах
    Вы не можете прикреплять файлы к сообщениям
    Вы не можете скачивать файлы