BitTorrentTracker PerecTracker.org
BitTorrentTracker PerecTracker.org
    
Регистрация  ·  Вход
 
 · 
Забыли пароль?

  • Максим Максимыч / Тамань / Фаталист (Владимир Барский) [1927, Драма, экранизация, немое кино, WEBRip-AVC]

    Ответить на тему
     
    Автор Сообщение

    Light

    Создавать темы 03-Дек-2015 00:13

           

    [Цитировать]

    Максим Максимыч / Тамань / Фаталист
    Жанр: Драма, экранизация
    Страна: СССР
    Студия: Госкинпром Грузии
    Год выпуска: 1927
    Продолжительность: 00:57:50
    Режиссёр: Владимир Барский
    В ролях:
    Николай Прозоровский … Печорин, прапорщик
    Белла Белецкая … черкешенка
    Владимир Оболенский … Максим Максимыч
    Т.Вишневская … девушка
    Илико Мерабишвили … Янко
    Владимир Чиаурели … слепой мальчик
    Т.Горина … хозяйка
    А.Салтыкова … Настя
    Н.Пачуев … Ефимыч, казак
    Александр Такайшвили … эпизод (нет в титрах)
    Заал Теришвили … эпизод (нет в титрах)
    Иосиф(б) Тархнишвили … Михаил Лермонтов
    Описание: По мотивам романа Михаила Юрьевича Лермонтова «Герой нашего времени».
    Некий офицер, от лица которого ведется повествование, по пути из Тифлиса во Владикавказ встречается с Максимом Максимычем, штабс-капитаном русской армии. Они устраиваются на ночлег в ауле, и здесь Максим Максимыч рассказывает своему новому знакомому об одном из случаев, происшедшем во время войны с горцами Кавказа. В пленного русского офицера влюбилась черкешенка, которая и помогла ему бежать. Но пуля горца, пущенная вдогонку, оборвала жизнь беглеца. В отчаянии несчастная девушка бросилась с башни. Во Владикавказе Максим Максимыч встречает своего бывшего сослуживца прапорщика Печорина. Обиженный холодностью давнишнего друга, Максим Максимыч напоминает ему о совместной жизни в крепости, о Бэле.
    Но Печорин равнодушно воспринимает трогательные излияния старика. Вскоре он уезжает в Персию. Рукописи Печорина, бережно хранимые штабс-капитаном, попадают к офицеру, от лица которого ведется рассказ. Всю ночь проводит он за чтением дневников. Перед зрителем проходят эпизоды из жизни Печорина.
    Наступает утро. Максим Максимыч расстается с попутчиком и продолжает свой путь.
    Дополнительная информация: Релиз:
    Автор рипа: pmv
    Исходник найден в сети – спасибо agape & serdar202
    IMDb = -
    Кинопоиск = - (7) -
    * Информация из Аннотированного каталога Советских художественных фильмов за 1918-1935г.г.
    477. МАКСИМ МАКСИМЫЧ («Тамань», «Фаталист»). Экраниз., 6 ч., 1800 м, Госкинпром Грузии, 1927 г.
    ВЭ 14.VI.1927 г.
    Автор сценария и режиссёр: Владимир Барский
    Оператор: Фердинанд Гегеле
    Художник: Поликарп Козакевич
    Ассистент режиссёра: Г. Гомаров
    * Премьера (СССР): 14 июня 1927
    ПРОСЬБА к СКАЧАВШИМ. НЕ УХОДИТЕ С РАЗДАЧИ, ПОМОГИТЕ ДРУГИМ СКАЧАТЬ!!!
    ВНИМАНИЕ!!! РИП ФОРМАТА mkv (кодек H.264) ВОСПРОИЗВОДИТСЯ НЕ НА ВСЕХ БЫТОВЫХ ВИДЕОПЛЕЕРАХ!!!
    Качество видео: WEBRip-AVC
    Формат видео: MKV
    Видео: 704x544 (1.29:1), 25.00 fps, ~1577 kbps avg, 0.165 bit/pixel
    Аудио: AC3, 44.1 KHz, stereo (2 ch), ~192 kbps avg

    MediaInfo

    General
    Complete name : D:\ torrents\Максим Максимыч (1927).mkv
    Format : Matroska
    File size : 747 MiB
    Duration : 57mn 50s
    Overall bit rate : 1 805 Kbps
    Encoded date : UTC 2015-11-17 00:51:06
    Writing application : mkvmerge v8.5.2 ('Crosses') 64bit
    Writing library : libebml v1.3.3 + libmatroska v1.4.4
    Video
    ID : 1
    Format : AVC
    Format/Info : Advanced Video Codec
    Format profile : High@L4.1
    Format settings, CABAC : Yes
    Format settings, ReFrames : 16 frames
    Muxing mode : Container profile=Unknown@4.1
    Codec ID : V_MPEG4/ISO/AVC
    Duration : 57mn 50s
    Bit rate : 1 577 Kbps
    Nominal bit rate : 1 610 Kbps
    Width : 704 pixels
    Height : 544 pixels
    Display aspect ratio : 1.294
    Frame rate : 25.000 fps
    Resolution : 8 bits
    Colorimetry : 4:2:0
    Scan type : Progressive
    Bits/(Pixel*Frame) : 0.165
    Stream size : 652 MiB (87%)
    Writing library : x264 core 146 r2538 121396c
    Encoding settings : cabac=1 / ref=16 / deblock=1:0:0 / analyse=0x3:0x133 / me=umh / subme=10 / psy=1 / psy_rd=1.00:0.00 / mixed_ref=1 / me_range=24 / chroma_me=1 / trellis=2 / 8x8dct=1 / cqm=0 / deadzone=21,11 / fast_pskip=1 / chroma_qp_offset=-2 / threads=30 / lookahead_threads=4 / sliced_threads=0 / nr=0 / decimate=1 / interlaced=0 / bluray_compat=0 / constrained_intra=0 / bframes=8 / b_pyramid=2 / b_adapt=2 / b_bias=0 / direct=3 / weightb=1 / open_gop=0 / weightp=2 / keyint=250 / keyint_min=25 / scenecut=40 / intra_refresh=0 / rc_lookahead=60 / rc=2pass / mbtree=1 / bitrate=1610 / ratetol=1.0 / qcomp=0.60 / qpmin=0 / qpmax=69 / qpstep=4 / cplxblur=20.0 / qblur=0.5 / ip_ratio=1.40 / aq=1:1.00
    Audio
    ID : 2
    Format : AC-3
    Format/Info : Audio Coding 3
    Codec ID : A_AC3
    Duration : 57mn 50s
    Bit rate mode : Constant
    Bit rate : 192 Kbps
    Channel(s) : 2 channels
    Channel positions : Front: L R
    Sampling rate : 44.1 KHz
    Stream size : 79.4 MiB (11%)

    Скриншот с названием фильма

    Скриншоты

    Скачать .torrent

    Скачать торрент-файл бесплатно и на максимальной скорости!

    Как скачивать? · Что такое торрент? · Рейтинг и ограничения

    !ВНИМАНИЕ!
    Сайт не распространяет и не хранит электронные версии произведений, а занимается лишь лишь предоставлением доступа к создаваемому пользователями каталогу ссылок на торрент-файлы, которые содержат только списки хеш-сумм, убедительная просьба с жалобами обращаться напрямую к пользователю. Файлы для обмена на трекере предоставлены пользователями сайта, и администрация не несёт ответственности за их содержание. Просьба не заливать файлы, защищенные авторскими правами, а также файлы нелегального содержания!


    _________________
    [Профиль] [ЛС]
    Показать сообщения:    
    Ответить на тему

    Текущее время: Сегодня, в 12:43

    Часовой пояс: GMT + 2



    Вы не можете начинать темы
    Вы не можете отвечать на сообщения
    Вы не можете редактировать свои сообщения
    Вы не можете удалять свои сообщения
    Вы не можете голосовать в опросах
    Вы не можете прикреплять файлы к сообщениям
    Вы не можете скачивать файлы