Register  ·  Log in
Forgot password?

  • Каждый вечер после работы (Константин Ершов) [1973 г., социальная драма, экранизация, TVRip]

    Reply to topic
    Author Message


    Post 03-Dec-2015 01:13



    Каждый вечер после работыГод выпуска: 1973.
    Жанр: социальная драма, экранизация.
    Продолжительность: 01:10:28.
    Режиссер: Константин Ершов.
    В ролях:
    Зинаида Славина, Александр Граве, Ирина Бунина, Николай Гринько, Ирина Губанова, Анатолий Адоскин, Валерий Бессараб, Г. Добина, Светлана Кондратова, Олег Комаров, Валентина Ивашёва, Оксана Милешкина-Смилкова, Николай Сектименко, Борис Сабуров.
    По по мотивам повести Марии Глушко «Елена Николаевна».
    В школу рабочей молодежи приходит новая учительница русского языка и литературы Елена Николаевна. Вскоре она понимает, что нельзя делать поблажек взрослым ученикам, уставшим после рабочего дня, а нужно заинтересовать их.

    Доп. информация:
    Страна: СССР .
    Киностудия: Киностудия им. А. Довженко.
    Авторы сценария: Константин Ершов, Олег Прокопенко.
    Оператор: Николай Кульчицкий.
    Композитор: Яков Лапинский.
    Художник: Давид Боровский.
    Премьера: 14 января 1974 года.

    Еще постер

    Рип sharky.

    Качество: TVRip
    Формат: AVI
    Видео: 704x528 (1.33:1), 25 fps, DivX Codec 4.x ~2078 kbps avg, 0.22 bit/pixe
    Аудио: 48 kHz, MPEG Layer 3, 2 ch, ~128.00 kbps avg

    Отчет MI

    Полное имя : Kazhdyj.vecher.posle.raboty.1973.XviD.TVRip.fenixclub.avi
    Format : AVI
    Format/Info : Audio Video Interleave
    File size : 1.09 GiB
    Duration : 1h 10mn
    Overall bit rate : 2 216 Kbps
    ID : 0
    Format : MPEG-4 Visual
    Format settings, BVOP : 1
    Format settings, QPel : No
    Format settings, GMC : No warppoints
    Format settings, Matrix : Default (H.263)
    Codec ID : DX50
    Codec ID/Hint : DivX 5
    Duration : 1h 10mn
    Bit rate : 2 078 Kbps
    Width : 704 pixels
    Height : 528 pixels
    Display aspect ratio : 4:3
    Frame rate : 25.000 fps
    Color space : YUV
    Chroma subsampling : 4:2:0
    Bit depth : 8 bits
    Scan type : Progressive
    Compression mode : Lossy
    Bits/(Pixel*Frame) : 0.224
    Stream size : 1.02 GiB (94%)
    Title : Video
    Writing library : DivX 3013
    ID : 1
    Format : MPEG Audio
    Format version : Version 1
    Format profile : Layer 3
    Codec ID : 55
    Codec ID/Hint : MP3
    Duration : 1h 10mn
    Bit rate mode : Constant
    Bit rate : 128 Kbps
    Channel(s) : 2 channels
    Sampling rate : 48.0 KHz
    Compression mode : Lossy
    Stream size : 64.5 MiB (6%)
    Alignment : Split accross interleaves
    Interleave, duration : 40 ms (1.00 video frame)
    Interleave, preload duratio : 500 ms
    Title : Audio

    Альтернативный хост

    Download .torrent

    Download free and at maximum speed!

    How to Download? · What is a torrent? · Ratings and Limitations

    The site does not extend and does not store electronic(digital) versions of products, and only gives access to a reference catalogue created by users on torrent-files which contain only lists of the hash-sums, the earnest entreaty, with complaints(abuse) to access directly to the user. Files for an exchange on tracker are given by users of a site, and the administration does not bear the responsibility for their maintenance. The request to not fill in the files protected by copyrights, and also files of the illegal maintenance!

    [Profile] [PM]
    Display posts from previous:    
    Reply to topic

    The time now is: Today 13:19

    All times are GMT + 3 Hours

    You cannot post new topics in this forum
    You cannot reply to topics in this forum
    You cannot edit your posts in this forum
    You cannot delete your posts in this forum
    You cannot vote in polls in this forum
    You cannot attach files in this forum
    You cannot download files in this forum