BitTorrentTracker PerecTracker.org
BitTorrentTracker PerecTracker.org
    
Регистрация  ·  Вход
 
 · 
Забыли пароль?

  • Каждый вечер после работы (Константин Ершов) [1973 г., социальная драма, экранизация, TVRip]

    Ответить на тему
     
    Автор Сообщение

    Light

    Создавать темы 03-Дек-2015 00:13

           

    [Цитировать]

    Каждый вечер после работыГод выпуска: 1973.
    Жанр: социальная драма, экранизация.
    Продолжительность: 01:10:28.
    Режиссер: Константин Ершов.
    В ролях:
    Зинаида Славина, Александр Граве, Ирина Бунина, Николай Гринько, Ирина Губанова, Анатолий Адоскин, Валерий Бессараб, Г. Добина, Светлана Кондратова, Олег Комаров, Валентина Ивашёва, Оксана Милешкина-Смилкова, Николай Сектименко, Борис Сабуров.
    Описание:
    По по мотивам повести Марии Глушко «Елена Николаевна».
    В школу рабочей молодежи приходит новая учительница русского языка и литературы Елена Николаевна. Вскоре она понимает, что нельзя делать поблажек взрослым ученикам, уставшим после рабочего дня, а нужно заинтересовать их.

    Доп. информация:
    Страна: СССР .
    Киностудия: Киностудия им. А. Довженко.
    Авторы сценария: Константин Ершов, Олег Прокопенко.
    Оператор: Николай Кульчицкий.
    Композитор: Яков Лапинский.
    Художник: Давид Боровский.
    Премьера: 14 января 1974 года.

    Еще постер

    Релиз
    Рип sharky.

    Качество: TVRip
    Формат: AVI
    Видео: 704x528 (1.33:1), 25 fps, DivX Codec 4.x ~2078 kbps avg, 0.22 bit/pixe
    Аудио: 48 kHz, MPEG Layer 3, 2 ch, ~128.00 kbps avg

    Отчет MI

    Общее
    Полное имя : Kazhdyj.vecher.posle.raboty.1973.XviD.TVRip.fenixclub.avi
    Format : AVI
    Format/Info : Audio Video Interleave
    File size : 1.09 GiB
    Duration : 1h 10mn
    Overall bit rate : 2 216 Kbps
    Video
    ID : 0
    Format : MPEG-4 Visual
    Format settings, BVOP : 1
    Format settings, QPel : No
    Format settings, GMC : No warppoints
    Format settings, Matrix : Default (H.263)
    Codec ID : DX50
    Codec ID/Hint : DivX 5
    Duration : 1h 10mn
    Bit rate : 2 078 Kbps
    Width : 704 pixels
    Height : 528 pixels
    Display aspect ratio : 4:3
    Frame rate : 25.000 fps
    Color space : YUV
    Chroma subsampling : 4:2:0
    Bit depth : 8 bits
    Scan type : Progressive
    Compression mode : Lossy
    Bits/(Pixel*Frame) : 0.224
    Stream size : 1.02 GiB (94%)
    Title : Video
    Writing library : DivX 3013
    Audio
    ID : 1
    Format : MPEG Audio
    Format version : Version 1
    Format profile : Layer 3
    Codec ID : 55
    Codec ID/Hint : MP3
    Duration : 1h 10mn
    Bit rate mode : Constant
    Bit rate : 128 Kbps
    Channel(s) : 2 channels
    Sampling rate : 48.0 KHz
    Compression mode : Lossy
    Stream size : 64.5 MiB (6%)
    Alignment : Split accross interleaves
    Interleave, duration : 40 ms (1.00 video frame)
    Interleave, preload duratio : 500 ms
    Title : Audio
    Скриншоты

    Альтернативный хост


    Скачать .torrent

    Скачать торрент-файл бесплатно и на максимальной скорости!

    Как скачивать? · Что такое торрент? · Рейтинг и ограничения

    !ВНИМАНИЕ!
    Сайт не распространяет и не хранит электронные версии произведений, а занимается лишь лишь предоставлением доступа к создаваемому пользователями каталогу ссылок на торрент-файлы, которые содержат только списки хеш-сумм, убедительная просьба с жалобами обращаться напрямую к пользователю. Файлы для обмена на трекере предоставлены пользователями сайта, и администрация не несёт ответственности за их содержание. Просьба не заливать файлы, защищенные авторскими правами, а также файлы нелегального содержания!


    _________________
    [Профиль] [ЛС]
    Показать сообщения:    
    Ответить на тему

    Текущее время: Сегодня, в 04:27

    Часовой пояс: GMT + 2



    Вы не можете начинать темы
    Вы не можете отвечать на сообщения
    Вы не можете редактировать свои сообщения
    Вы не можете удалять свои сообщения
    Вы не можете голосовать в опросах
    Вы не можете прикреплять файлы к сообщениям
    Вы не можете скачивать файлы