BitTorrentTracker PerecTracker.org
BitTorrentTracker PerecTracker.org
    
Регистрация  ·  Вход
 
 · 
Забыли пароль?

  • Дезертир / Теплоход «Пятилетка» (Всеволод Пудовкин) [1933, Драма, DVDRip]

    Ответить на тему
     
    Автор Сообщение

    Light

    Создавать темы 03-Дек-2015 00:13

           

    [Цитировать]

    Дезертир / Теплоход «Пятилетка»
    Жанр: Драма
    Страна: СССР
    Студия: Mежрабпом-фильм
    Год выпуска: 1933
    Продолжительность: 01:45:46.934 (152174 frames)
    Субтитры: английские (hardsub)
    Режиссёр: Всеволод Пудовкин
    В ролях:
    Борис Ливанов … Карл Ренн, немецкий докер
    Василий Ковригин …. Людвиг Цейле
    Александр Чистяков … Фриц Мюллер
    Тамара Макарова … Грета Цейле, газетчица
    Семён Свашенко … Бруно
    Дмитрий Консовский … Штраус
    Юдифь Глизер … Марчелла Цейле
    Сергей Мартинсон … прохожий
    Максим Штраух … первый бонза
    Сергей Герасимов … второй бонза
    Сергей Комаров … рабочий
    Владимир Уральский … секретарь ячейки
    А.Бесперстый … Васька
    Николай Романов … Генрих
    Описание: Первый звуковой фильм режиссера Всеволода Пудовкина. Осуществлен новаторский принцип контрапунктного сочетания звука и изображения.
    1932 год. Молодой гамбургский докер Карл Ренн, устав от многомесячной забастовки, поддается на агитацию социал-реформистов и уклоняется от участия в решающей схватке с полицией и штрейкбрехерами. Попав в число рабочей делегации, направленной в СССР, герой остается в стране большевиков и вскоре становится ударником завода. Однако, узнав о гибели коммуниста Цейле, руководителя бастующих докеров, Рейн возвращается на родину и включается в классовую борьбу...
    Дополнительная информация: Релиз:
    Автор рипа: pmv
    Исходник найден в сети – спасибо ronnie
    IMDb = 6,8/10 from 199 users -
    Кинопоиск = - (51) -
    * Информация из Аннотированного каталога Советских художественных фильмов за 1930-1950г.г.
    1226. ДЕЗЕРТИР («Теплоход «Пятилетка»). Драма, 7 ч , 2818 м, Межрабпомфильм, 1933 г.
    ВЭ 19.IX.1933 г.
    Авторы сценария: Нина Агаджанова, Михаил Красноставский, Александр Лазебников
    Режиссёр: Всеволод Пудовкин
    Оператор: Анатолий Головня
    2-й оператор: Юлий Фогельман
    Художник: Сергей Козловский
    Композитор: Юрий (Георгий) Шапорин
    Монтаж: И. Аравина, М. Усольцева
    * Присутствуют английские встроенные (hardsub) субтитры
    * Премьера (СССР): 19 сентября 1933
    * Премьера (мир): 12 октября 1934 (США), 1973 (Германия (ФРГ))

    ПРОСЬБА к СКАЧАВШИМ. НЕ УХОДИТЕ С РАЗДАЧИ, ПОМОГИТЕ ДРУГИМ СКАЧАТЬ!!!
    Семпл: http://multi-up.com/1076316
    Качество видео: DVDRip
    Формат видео: AVI
    Видео: 640x480 (1.33:1), 23.976 fps, XviD build 73, ~1799 kbps avg, 0.24 bit/pixel
    Аудио: 48 kHz, MPEG Layer 3, 1 ch, ~128.00 kbps avg

    MediaInfo

    General
    Complete name : D:\torrents\Дезертир (1933).avi
    Format : AVI
    Format/Info : Audio Video Interleave
    File size : 1.43 GiB
    Duration : 1h 45mn
    Overall bit rate : 1 937 Kbps
    Writing library : VirtualDub build 35576/release
    Video
    ID : 0
    Format : MPEG-4 Visual
    Format profile : Advanced Simple@L5
    Format settings, BVOP : Yes
    Format settings, QPel : No
    Format settings, GMC : No warppoints
    Format settings, Matrix : Default (H.263)
    Codec ID : XVID
    Codec ID/Hint : XviD
    Duration : 1h 45mn
    Bit rate : 1 800 Kbps
    Width : 640 pixels
    Height : 480 pixels
    Display aspect ratio : 4:3
    Frame rate : 23.976 fps
    Resolution : 8 bits
    Colorimetry : 4:2:0
    Scan type : Progressive
    Bits/(Pixel*Frame) : 0.244
    Stream size : 1.33 GiB (93%)
    Writing library : XviD 73
    Audio
    ID : 1
    Format : MPEG Audio
    Format version : Version 1
    Format profile : Layer 3
    Codec ID : 55
    Codec ID/Hint : MP3
    Duration : 1h 45mn
    Bit rate mode : Constant
    Bit rate : 128 Kbps
    Channel(s) : 1 channel
    Sampling rate : 48.0 KHz
    Video delay : 100ms
    Stream size : 96.8 MiB (7%)
    Alignment : Split accross interleaves
    Interleave, duration : 42 ms (1.00 video frame)
    Interleave, preload duration : 500 ms

    Скриншот с названием фильма

    Скриншоты

    Скачать .torrent

    Скачать торрент-файл бесплатно и на максимальной скорости!

    Как скачивать? · Что такое торрент? · Рейтинг и ограничения

    !ВНИМАНИЕ!
    Сайт не распространяет и не хранит электронные версии произведений, а занимается лишь лишь предоставлением доступа к создаваемому пользователями каталогу ссылок на торрент-файлы, которые содержат только списки хеш-сумм, убедительная просьба с жалобами обращаться напрямую к пользователю. Файлы для обмена на трекере предоставлены пользователями сайта, и администрация не несёт ответственности за их содержание. Просьба не заливать файлы, защищенные авторскими правами, а также файлы нелегального содержания!


    _________________
    [Профиль] [ЛС]
    Показать сообщения:    
    Ответить на тему

    Текущее время: Сегодня, в 07:58

    Часовой пояс: GMT + 2



    Вы не можете начинать темы
    Вы не можете отвечать на сообщения
    Вы не можете редактировать свои сообщения
    Вы не можете удалять свои сообщения
    Вы не можете голосовать в опросах
    Вы не можете прикреплять файлы к сообщениям
    Вы не можете скачивать файлы