BitTorrentTracker PerecTracker.org
BitTorrentTracker PerecTracker.org
    
Регистрация  ·  Вход
 
 · 
Забыли пароль?

  • Богач, бедняк... / Turtuolis, vargšas (Арунас Жебрюнас) [1982, СССР, драма, экранизация, SATRip-AVC] Dub

    Ответить на тему
     
    Автор Сообщение

    Light

    Создавать темы 03-Дек-2015 00:13

           

    [Цитировать]

    Богач, бедняк... (4 Серии)
    Год выпуска: 1982
    Страна: СССР, Литовская киностудия
    Жанр: драма, экранизация
    Продолжительность: 01:14:42 | 01:13:58 | 01:24:22 | 01:10:48
    Перевод: Оригинальные голоса
    Режиссер: Арунас Жебрюнас
    В ролях: Рута Сталилюнайте, Любомирас Лауцявичюс, Неле Савиченко-Климене, Саулюс Баландис, Ремигиюс Сабулис, Игорь Рогачёв, Георгий Тараторкин, Регимантас Адомайтис и др.
    Описание:
    Сериал по роману Ирвина Шоу.
    Трагическая, почти детективная история семьи немецкого эмигранта в Америке с 1945 года.
    Качество: SATRip-AVC
    Формат: MKV
    Видео кодек: H.264
    Аудио кодек: AC3
    Видео: 714x568 (-> 762x568) | 706x568 (-> 752x568) at 25.000 fps, MPEG-4 AVC (High@L4.1), ~2 593 Kbps | ~2 769 Kbps | ~2 710 Kbps | ~3 009 Kbps
    Аудио: AC3 48.0 KHz 2ch. 192 kbps | Rux264 Log

    Серия 1

    x264 [info]: using SAR=16/15
    x264 [info]: profile High, level 4.1
    x264 [info]: frame I:581 Avg QP:18.50 size: 41270
    x264 [info]: frame P:22244 Avg QP:19.86 size: 24531
    x264 [info]: frame B:89226 Avg QP:22.12 size: 10239
    x264 [info]: consecutive B-frames: 0.9% 1.3% 4.8% 15.0% 13.3% 64.7%
    x264 [info]: mb I I16..4: 4.2% 83.1% 12.7%
    x264 [info]: mb P I16..4: 0.9% 22.2% 1.7% P16..4: 30.8% 34.0% 9.1% 0.9% 0.0% skip: 0.3%
    x264 [info]: mb B I16..4: 0.2% 2.6% 0.2% B16..8: 39.4% 20.6% 2.8% direct:16.9% skip:17.2% L0:41.4% L1:36.6% BI:22.0%
    x264 [info]: 8x8 transform intra:88.4% inter:57.0%
    x264 [info]: coded y,uvDC,uvAC intra: 92.8% 77.7% 42.2% inter: 45.5% 44.2% 2.3%
    x264 [info]: i16 v,h,dc,p: 22% 22% 5% 51%
    x264 [info]: i8 v,h,dc,ddl,ddr,vr,hd,vl,hu: 12% 7% 9% 10% 11% 13% 11% 14% 13%
    x264 [info]: i4 v,h,dc,ddl,ddr,vr,hd,vl,hu: 16% 12% 5% 7% 12% 14% 12% 11% 12%
    x264 [info]: i8c dc,h,v,p: 30% 28% 27% 15%
    x264 [info]: Weighted P-Frames: Y:25.3% UV:16.4%
    x264 [info]: ref P L0: 34.8% 9.9% 17.0% 8.7% 7.1% 5.6% 4.9% 3.0% 2.9% 2.6% 2.6% 0.9% 0.0%
    x264 [info]: ref B L0: 70.2% 11.9% 5.4% 3.3% 2.6% 2.3% 1.9% 1.3% 0.8% 0.3%
    x264 [info]: ref B L1: 93.0% 7.0%
    x264 [info]: kb/s:2647.45

    Серия 2

    x264 [info]: using SAR=16/15
    x264 [info]: profile High, level 4.1
    x264 [info]: frame I:564 Avg QP:19.24 size: 43313
    x264 [info]: frame P:21281 Avg QP:20.52 size: 25104
    x264 [info]: frame B:89129 Avg QP:22.64 size: 11335
    x264 [info]: consecutive B-frames: 0.7% 0.8% 2.7% 14.7% 14.7% 66.4%
    x264 [info]: mb I I16..4: 5.9% 68.9% 25.1%
    x264 [info]: mb P I16..4: 1.1% 13.7% 3.1% P16..4: 33.9% 37.2% 9.5% 1.2% 0.1% skip: 0.1%
    x264 [info]: mb B I16..4: 0.2% 1.3% 0.3% B16..8: 39.0% 21.6% 2.9% direct:20.9% skip:13.9% L0:42.1% L1:36.0% BI:21.9%
    x264 [info]: 8x8 transform intra:74.6% inter:37.1%
    x264 [info]: coded y,uvDC,uvAC intra: 92.6% 88.2% 61.3% inter: 53.6% 49.4% 5.8%
    x264 [info]: i16 v,h,dc,p: 36% 18% 4% 43%
    x264 [info]: i8 v,h,dc,ddl,ddr,vr,hd,vl,hu: 10% 9% 6% 9% 12% 12% 13% 13% 16%
    x264 [info]: i4 v,h,dc,ddl,ddr,vr,hd,vl,hu: 13% 15% 4% 8% 11% 12% 13% 11% 15%
    x264 [info]: i8c dc,h,v,p: 35% 26% 23% 17%
    x264 [info]: Weighted P-Frames: Y:31.2% UV:22.0%
    x264 [info]: ref P L0: 32.8% 10.2% 17.0% 9.2% 7.3% 5.7% 5.1% 3.2% 3.0% 2.7% 2.8% 1.1% 0.0%
    x264 [info]: ref B L0: 69.9% 12.5% 5.4% 3.3% 2.5% 2.2% 1.8% 1.3% 0.8% 0.4%
    x264 [info]: ref B L1: 93.6% 6.4%
    x264 [info]: kb/s:2827.52

    Серия 3

    x264 [info]: using SAR=16/15
    x264 [info]: profile High, level 4.1
    x264 [info]: frame I:652 Avg QP:18.97 size: 43493
    x264 [info]: frame P:24244 Avg QP:20.17 size: 26038
    x264 [info]: frame B:101666 Avg QP:22.33 size: 10737
    x264 [info]: consecutive B-frames: 0.8% 1.0% 3.7% 12.7% 10.8% 71.1%
    x264 [info]: mb I I16..4: 3.3% 84.2% 12.5%
    x264 [info]: mb P I16..4: 0.6% 21.8% 1.5% P16..4: 30.4% 34.5% 10.0% 0.9% 0.0% skip: 0.2%
    x264 [info]: mb B I16..4: 0.2% 2.5% 0.1% B16..8: 39.6% 21.6% 3.1% direct:17.2% skip:15.6% L0:41.0% L1:34.4% BI:24.5%
    x264 [info]: 8x8 transform intra:89.7% inter:55.8%
    x264 [info]: coded y,uvDC,uvAC intra: 94.6% 82.6% 49.0% inter: 47.9% 46.1% 3.3%
    x264 [info]: i16 v,h,dc,p: 22% 23% 3% 52%
    x264 [info]: i8 v,h,dc,ddl,ddr,vr,hd,vl,hu: 13% 7% 9% 10% 11% 13% 10% 14% 12%
    x264 [info]: i4 v,h,dc,ddl,ddr,vr,hd,vl,hu: 16% 11% 3% 8% 12% 14% 12% 12% 12%
    x264 [info]: i8c dc,h,v,p: 33% 25% 27% 15%
    x264 [info]: Weighted P-Frames: Y:28.8% UV:19.4%
    x264 [info]: ref P L0: 33.4% 10.8% 16.9% 8.8% 7.1% 5.6% 4.9% 3.0% 2.9% 2.7% 2.7% 1.0% 0.0%
    x264 [info]: ref B L0: 69.8% 12.0% 5.3% 3.4% 2.6% 2.3% 2.0% 1.4% 0.9% 0.3%
    x264 [info]: ref B L1: 93.3% 6.7%
    x264 [info]: kb/s:2767.44

    Серия 4

    x264 [info]: using SAR=16/15
    x264 [info]: profile High, level 4.1
    x264 [info]: frame I:553 Avg QP:18.63 size: 43252
    x264 [info]: frame P:21170 Avg QP:19.94 size: 27625
    x264 [info]: frame B:84494 Avg QP:22.07 size: 12107
    x264 [info]: consecutive B-frames: 0.9% 1.4% 4.8% 16.5% 11.2% 65.2%
    x264 [info]: mb I I16..4: 3.6% 83.0% 13.4%
    x264 [info]: mb P I16..4: 0.9% 27.2% 2.2% P16..4: 28.3% 31.5% 8.7% 0.9% 0.0% skip: 0.2%
    x264 [info]: mb B I16..4: 0.2% 3.5% 0.2% B16..8: 39.4% 22.2% 3.3% direct:17.9% skip:13.3% L0:40.2% L1:34.2% BI:25.6%
    x264 [info]: 8x8 transform intra:89.1% inter:53.7%
    x264 [info]: coded y,uvDC,uvAC intra: 94.8% 79.4% 44.0% inter: 51.3% 45.7% 2.7%
    x264 [info]: i16 v,h,dc,p: 22% 24% 5% 50%
    x264 [info]: i8 v,h,dc,ddl,ddr,vr,hd,vl,hu: 12% 9% 10% 9% 10% 12% 11% 13% 14%
    x264 [info]: i4 v,h,dc,ddl,ddr,vr,hd,vl,hu: 14% 13% 4% 7% 11% 12% 13% 11% 14%
    x264 [info]: i8c dc,h,v,p: 30% 29% 27% 14%
    x264 [info]: Weighted P-Frames: Y:23.4% UV:15.2%
    x264 [info]: ref P L0: 34.8% 10.8% 17.3% 8.6% 7.0% 5.3% 4.7% 2.9% 2.8% 2.5% 2.5% 0.8% 0.0%
    x264 [info]: ref B L0: 72.5% 11.1% 4.9% 3.0% 2.4% 2.1% 1.7% 1.2% 0.8% 0.3%
    x264 [info]: ref B L1: 93.7% 6.3%
    x264 [info]: kb/s:3072.40
    Скриншоты

    Серия 1


    Серия 2


    Серия 3


    Серия 4


    MI

    Серия 1

    General
    Unique ID : 221314463343262157648993988605592051553 (0xA67F9D7E43742E43943737036E599F61)
    Complete name : Богач, бедняк.1982.DVB.Тетралогия\Богач, бедняк.1982.DVB.Часть.1.mkv
    Format : Matroska
    Format version : Version 4 / Version 2
    File size : 1.48 GiB
    Duration : 1h 14mn
    Overall bit rate : 2 841 Kbps
    Encoded date : UTC 2015-11-26 19:14:15
    Writing application : mkvmerge v8.3.0 ('Over the Horizon') 64bit
    Writing library : libebml v1.3.1 + libmatroska v1.4.2
    DURATION : 01:14:42.048000000
    NUMBER_OF_FRAMES : 186752
    NUMBER_OF_BYTES : 107569152
    _STATISTICS_WRITING_APP : mkvmerge v8.3.0 ('Over the Horizon') 64bit
    _STATISTICS_WRITING_DATE_UTC : 2015-11-26 19:14:15
    _STATISTICS_TAGS : BPS DURATION NUMBER_OF_FRAMES NUMBER_OF_BYTES
    Video
    ID : 1
    Format : AVC
    Format/Info : Advanced Video Codec
    Format profile : High@L4.1
    Format settings, CABAC : Yes
    Format settings, ReFrames : 11 frames
    Codec ID : V_MPEG4/ISO/AVC
    Duration : 1h 14mn
    Bit rate : 2 593 Kbps
    Width : 714 pixels
    Height : 568 pixels
    Display aspect ratio : 4:3
    Original display aspect ratio : 4:3
    Frame rate mode : Constant
    Frame rate : 25.000 fps
    Color space : YUV
    Chroma subsampling : 4:2:0
    Bit depth : 8 bits
    Scan type : Progressive
    Bits/(Pixel*Frame) : 0.256
    Stream size : 1.35 GiB (91%)
    Writing library : x264 core 146 r2538 121396c
    Encoding settings : cabac=1 / ref=11 / deblock=1:-2:-2 / analyse=0x3:0x133 / me=umh / subme=11 / psy=1 / psy_rd=1.10:0.05 / mixed_ref=1 / me_range=32 / chroma_me=1 / trellis=2 / 8x8dct=1 / cqm=0 / deadzone=21,11 / fast_pskip=0 / chroma_qp_offset=-3 / threads=6 / lookahead_threads=1 / sliced_threads=0 / nr=0 / decimate=1 / interlaced=0 / bluray_compat=0 / constrained_intra=0 / bframes=5 / b_pyramid=2 / b_adapt=2 / b_bias=0 / direct=1 / weightb=1 / open_gop=0 / weightp=2 / keyint=250 / keyint_min=25 / scenecut=40 / intra_refresh=0 / rc_lookahead=40 / rc=crf / mbtree=0 / crf=19.0 / qcomp=0.65 / qpmin=0 / qpmax=69 / qpstep=4 / vbv_maxrate=62500 / vbv_bufsize=78125 / crf_max=0.0 / nal_hrd=none / filler=0 / ip_ratio=1.40 / pb_ratio=1.30 / aq=3:0.80
    Language : Russian
    Default : Yes
    Forced : No
    Color range : Full
    Color primaries : BT.601 PAL
    Transfer characteristics : BT.470 System B, BT.470 System G
    Matrix coefficients : BT.601
    DURATION : 01:14:42.040000000
    NUMBER_OF_FRAMES : 112051
    NUMBER_OF_BYTES : 1483246529
    _STATISTICS_WRITING_APP : mkvmerge v8.3.0 ('Over the Horizon') 64bit
    _STATISTICS_WRITING_DATE_UTC : 2015-11-26 19:14:15
    _STATISTICS_TAGS : BPS DURATION NUMBER_OF_FRAMES NUMBER_OF_BYTES
    Audio
    ID : 2
    Format : MPEG Audio
    Format version : Version 1
    Format profile : Layer 2
    Codec ID : A_MPEG/L2
    Codec ID/Hint : MP2
    Duration : 1h 14mn
    Bit rate mode : Constant
    Bit rate : 192 Kbps
    Channel(s) : 2 channels
    Sampling rate : 48.0 KHz
    Compression mode : Lossy
    Stream size : 103 MiB (7%)
    Title : MP2 | 48 kHz | 2.0, 192 kbps; Оригинальные голоса
    Language : Russian
    Default : Yes
    Forced : No

    Серия 2

    General
    Unique ID : 182661253368656825936309220132809225646 (0x896B471AE63557D7BB0F54C654BE35AE)
    Complete name : Богач, бедняк.1982.DVB.Тетралогия\Богач, бедняк.1982.DVB.Часть.2.mkv
    Format : Matroska
    Format version : Version 4 / Version 2
    File size : 1.56 GiB
    Duration : 1h 13mn
    Overall bit rate : 3 021 Kbps
    Encoded date : UTC 2015-11-26 19:16:48
    Writing application : mkvmerge v8.3.0 ('Over the Horizon') 64bit
    Writing library : libebml v1.3.1 + libmatroska v1.4.2
    DURATION : 01:13:58.968000000
    NUMBER_OF_FRAMES : 184957
    NUMBER_OF_BYTES : 106535232
    _STATISTICS_WRITING_APP : mkvmerge v8.3.0 ('Over the Horizon') 64bit
    _STATISTICS_WRITING_DATE_UTC : 2015-11-26 19:16:48
    _STATISTICS_TAGS : BPS DURATION NUMBER_OF_FRAMES NUMBER_OF_BYTES
    Video
    ID : 1
    Format : AVC
    Format/Info : Advanced Video Codec
    Format profile : High@L4.1
    Format settings, CABAC : Yes
    Format settings, ReFrames : 11 frames
    Codec ID : V_MPEG4/ISO/AVC
    Duration : 1h 13mn
    Bit rate : 2 769 Kbps
    Width : 706 pixels
    Height : 568 pixels
    Display aspect ratio : 4:3
    Frame rate mode : Constant
    Frame rate : 25.000 fps
    Color space : YUV
    Chroma subsampling : 4:2:0
    Bit depth : 8 bits
    Scan type : Progressive
    Bits/(Pixel*Frame) : 0.276
    Stream size : 1.43 GiB (92%)
    Writing library : x264 core 146 r2538 121396c
    Encoding settings : cabac=1 / ref=11 / deblock=1:-2:-2 / analyse=0x3:0x133 / me=umh / subme=11 / psy=1 / psy_rd=1.10:0.05 / mixed_ref=1 / me_range=32 / chroma_me=1 / trellis=2 / 8x8dct=1 / cqm=0 / deadzone=21,11 / fast_pskip=0 / chroma_qp_offset=-3 / threads=6 / lookahead_threads=1 / sliced_threads=0 / nr=0 / decimate=1 / interlaced=0 / bluray_compat=0 / constrained_intra=0 / bframes=5 / b_pyramid=2 / b_adapt=2 / b_bias=0 / direct=1 / weightb=1 / open_gop=0 / weightp=2 / keyint=250 / keyint_min=25 / scenecut=40 / intra_refresh=0 / rc_lookahead=40 / rc=crf / mbtree=0 / crf=19.0 / qcomp=0.65 / qpmin=0 / qpmax=69 / qpstep=4 / vbv_maxrate=62500 / vbv_bufsize=78125 / crf_max=0.0 / nal_hrd=none / filler=0 / ip_ratio=1.40 / pb_ratio=1.30 / aq=3:0.80
    Language : Russian
    Default : Yes
    Forced : No
    Color range : Full
    Color primaries : BT.601 PAL
    Transfer characteristics : BT.470 System B, BT.470 System G
    Matrix coefficients : BT.601
    DURATION : 01:13:58.960000000
    NUMBER_OF_FRAMES : 110974
    NUMBER_OF_BYTES : 1568907969
    _STATISTICS_WRITING_APP : mkvmerge v8.3.0 ('Over the Horizon') 64bit
    _STATISTICS_WRITING_DATE_UTC : 2015-11-26 19:16:48
    _STATISTICS_TAGS : BPS DURATION NUMBER_OF_FRAMES NUMBER_OF_BYTES
    Audio
    ID : 2
    Format : MPEG Audio
    Format version : Version 1
    Format profile : Layer 2
    Codec ID : A_MPEG/L2
    Codec ID/Hint : MP2
    Duration : 1h 13mn
    Bit rate mode : Constant
    Bit rate : 192 Kbps
    Channel(s) : 2 channels
    Sampling rate : 48.0 KHz
    Compression mode : Lossy
    Stream size : 102 MiB (6%)
    Title : MP2 | 48 kHz | 2.0, 192 kbps; Оригинальные голоса
    Language : Russian
    Default : Yes
    Forced : No

    Серия 3

    General
    Unique ID : 244271398167482767946388955928393022251 (0xB7C4F5C472B2EAF893F6FD3BB40DFB2B)
    Complete name : Богач, бедняк.1982.DVB.Тетралогия\Богач, бедняк.1982.DVB.Часть.3.mkv
    Format : Matroska
    Format version : Version 4 / Version 2
    File size : 1.75 GiB
    Duration : 1h 24mn
    Overall bit rate : 2 961 Kbps
    Encoded date : UTC 2015-11-26 19:18:07
    Writing application : mkvmerge v8.3.0 ('Over the Horizon') 64bit
    Writing library : libebml v1.3.1 + libmatroska v1.4.2
    DURATION : 01:24:22.440000000
    NUMBER_OF_FRAMES : 210935
    NUMBER_OF_BYTES : 121498560
    _STATISTICS_WRITING_APP : mkvmerge v8.3.0 ('Over the Horizon') 64bit
    _STATISTICS_WRITING_DATE_UTC : 2015-11-26 19:18:07
    _STATISTICS_TAGS : BPS DURATION NUMBER_OF_FRAMES NUMBER_OF_BYTES
    Video
    ID : 1
    Format : AVC
    Format/Info : Advanced Video Codec
    Format profile : High@L4.1
    Format settings, CABAC : Yes
    Format settings, ReFrames : 11 frames
    Codec ID : V_MPEG4/ISO/AVC
    Duration : 1h 24mn
    Bit rate : 2 710 Kbps
    Width : 714 pixels
    Height : 568 pixels
    Display aspect ratio : 4:3
    Original display aspect ratio : 4:3
    Frame rate mode : Constant
    Frame rate : 25.000 fps
    Color space : YUV
    Chroma subsampling : 4:2:0
    Bit depth : 8 bits
    Scan type : Progressive
    Bits/(Pixel*Frame) : 0.267
    Stream size : 1.60 GiB (92%)
    Writing library : x264 core 146 r2538 121396c
    Encoding settings : cabac=1 / ref=11 / deblock=1:-2:-2 / analyse=0x3:0x133 / me=umh / subme=11 / psy=1 / psy_rd=1.10:0.05 / mixed_ref=1 / me_range=32 / chroma_me=1 / trellis=2 / 8x8dct=1 / cqm=0 / deadzone=21,11 / fast_pskip=0 / chroma_qp_offset=-3 / threads=6 / lookahead_threads=1 / sliced_threads=0 / nr=0 / decimate=1 / interlaced=0 / bluray_compat=0 / constrained_intra=0 / bframes=5 / b_pyramid=2 / b_adapt=2 / b_bias=0 / direct=1 / weightb=1 / open_gop=0 / weightp=2 / keyint=250 / keyint_min=25 / scenecut=40 / intra_refresh=0 / rc_lookahead=40 / rc=crf / mbtree=0 / crf=19.0 / qcomp=0.65 / qpmin=0 / qpmax=69 / qpstep=4 / vbv_maxrate=62500 / vbv_bufsize=78125 / crf_max=0.0 / nal_hrd=none / filler=0 / ip_ratio=1.40 / pb_ratio=1.30 / aq=3:0.80
    Language : Russian
    Default : Yes
    Forced : No
    Color range : Full
    Color primaries : BT.601 PAL
    Transfer characteristics : BT.470 System B, BT.470 System G
    Matrix coefficients : BT.601
    DURATION : 01:24:22.480000000
    NUMBER_OF_FRAMES : 126562
    NUMBER_OF_BYTES : 1751262251
    _STATISTICS_WRITING_APP : mkvmerge v8.3.0 ('Over the Horizon') 64bit
    _STATISTICS_WRITING_DATE_UTC : 2015-11-26 19:18:07
    _STATISTICS_TAGS : BPS DURATION NUMBER_OF_FRAMES NUMBER_OF_BYTES
    Audio
    ID : 2
    Format : MPEG Audio
    Format version : Version 1
    Format profile : Layer 2
    Codec ID : A_MPEG/L2
    Codec ID/Hint : MP2
    Duration : 1h 24mn
    Bit rate mode : Constant
    Bit rate : 192 Kbps
    Channel(s) : 2 channels
    Sampling rate : 48.0 KHz
    Compression mode : Lossy
    Stream size : 116 MiB (6%)
    Title : MP2 | 48 kHz | 2.0, 192 kbps; Оригинальные голоса
    Language : Russian
    Default : Yes
    Forced : No

    Серия 4

    General
    Unique ID : 238996485486002112675128453212092583470 (0xB3CD0C7E297C0402BB11FBD6C1B54E2E)
    Complete name : Богач, бедняк.1982.DVB.Тетралогия\Богач, бедняк.1982.DVB.Часть.4.mkv
    Format : Matroska
    Format version : Version 4 / Version 2
    File size : 1.62 GiB
    Duration : 1h 10mn
    Overall bit rate : 3 266 Kbps
    Encoded date : UTC 2015-11-26 19:19:29
    Writing application : mkvmerge v8.3.0 ('Over the Horizon') 64bit
    Writing library : libebml v1.3.1 + libmatroska v1.4.2
    DURATION : 01:10:48.672000000
    NUMBER_OF_FRAMES : 177028
    NUMBER_OF_BYTES : 101968128
    _STATISTICS_WRITING_APP : mkvmerge v8.3.0 ('Over the Horizon') 64bit
    _STATISTICS_WRITING_DATE_UTC : 2015-11-26 19:19:29
    _STATISTICS_TAGS : BPS DURATION NUMBER_OF_FRAMES NUMBER_OF_BYTES
    Video
    ID : 1
    Format : AVC
    Format/Info : Advanced Video Codec
    Format profile : High@L4.1
    Format settings, CABAC : Yes
    Format settings, ReFrames : 11 frames
    Codec ID : V_MPEG4/ISO/AVC
    Duration : 1h 10mn
    Bit rate : 3 009 Kbps
    Width : 714 pixels
    Height : 568 pixels
    Display aspect ratio : 4:3
    Original display aspect ratio : 4:3
    Frame rate mode : Constant
    Frame rate : 25.000 fps
    Color space : YUV
    Chroma subsampling : 4:2:0
    Bit depth : 8 bits
    Scan type : Progressive
    Bits/(Pixel*Frame) : 0.297
    Stream size : 1.49 GiB (92%)
    Writing library : x264 core 146 r2538 121396c
    Encoding settings : cabac=1 / ref=11 / deblock=1:-2:-2 / analyse=0x3:0x133 / me=umh / subme=11 / psy=1 / psy_rd=1.10:0.05 / mixed_ref=1 / me_range=32 / chroma_me=1 / trellis=2 / 8x8dct=1 / cqm=0 / deadzone=21,11 / fast_pskip=0 / chroma_qp_offset=-3 / threads=6 / lookahead_threads=1 / sliced_threads=0 / nr=0 / decimate=1 / interlaced=0 / bluray_compat=0 / constrained_intra=0 / bframes=5 / b_pyramid=2 / b_adapt=2 / b_bias=0 / direct=1 / weightb=1 / open_gop=0 / weightp=2 / keyint=250 / keyint_min=25 / scenecut=40 / intra_refresh=0 / rc_lookahead=40 / rc=crf / mbtree=0 / crf=18.6 / qcomp=0.65 / qpmin=0 / qpmax=69 / qpstep=4 / vbv_maxrate=62500 / vbv_bufsize=78125 / crf_max=0.0 / nal_hrd=none / filler=0 / ip_ratio=1.40 / pb_ratio=1.30 / aq=3:0.80
    Language : Russian
    Default : Yes
    Forced : No
    Color range : Full
    Color primaries : BT.601 PAL
    Transfer characteristics : BT.470 System B, BT.470 System G
    Matrix coefficients : BT.601
    DURATION : 01:10:48.680000000
    NUMBER_OF_FRAMES : 106217
    NUMBER_OF_BYTES : 1631704843
    _STATISTICS_WRITING_APP : mkvmerge v8.3.0 ('Over the Horizon') 64bit
    _STATISTICS_WRITING_DATE_UTC : 2015-11-26 19:19:29
    _STATISTICS_TAGS : BPS DURATION NUMBER_OF_FRAMES NUMBER_OF_BYTES
    Audio
    ID : 2
    Format : MPEG Audio
    Format version : Version 1
    Format profile : Layer 2
    Codec ID : A_MPEG/L2
    Codec ID/Hint : MP2
    Duration : 1h 10mn
    Bit rate mode : Constant
    Bit rate : 192 Kbps
    Channel(s) : 2 channels
    Sampling rate : 48.0 KHz
    Compression mode : Lossy
    Stream size : 97.2 MiB (6%)
    Title : MP2 | 48 kHz | 2.0, 192 kbps; Оригинальные голоса
    Language : Russian
    Default : Yes
    Forced : No
    P.S.: Приятного просмотра!
    Скачать .torrent

    Скачать торрент-файл бесплатно и на максимальной скорости!

    Как скачивать? · Что такое торрент? · Рейтинг и ограничения

    !ВНИМАНИЕ!
    Сайт не распространяет и не хранит электронные версии произведений, а занимается лишь лишь предоставлением доступа к создаваемому пользователями каталогу ссылок на торрент-файлы, которые содержат только списки хеш-сумм, убедительная просьба с жалобами обращаться напрямую к пользователю. Файлы для обмена на трекере предоставлены пользователями сайта, и администрация не несёт ответственности за их содержание. Просьба не заливать файлы, защищенные авторскими правами, а также файлы нелегального содержания!


    _________________
    [Профиль] [ЛС]
    Показать сообщения:    
    Ответить на тему

    Текущее время: Сегодня, в 12:26

    Часовой пояс: GMT + 2



    Вы не можете начинать темы
    Вы не можете отвечать на сообщения
    Вы не можете редактировать свои сообщения
    Вы не можете удалять свои сообщения
    Вы не можете голосовать в опросах
    Вы не можете прикреплять файлы к сообщениям
    Вы не можете скачивать файлы