BitTorrentTracker PerecTracker.org
BitTorrentTracker PerecTracker.org
    
Регистрация  ·  Вход
 
 · 
Забыли пароль?

  • Дежа Вю (Юлиуш Махульский) [1989, криминальная комедия, HDTVRip]

    Ответить на тему
     
    Автор Сообщение

    Light

    Создавать темы 03-Дек-2015 00:13

           

    [Цитировать]

    Дежа Вю
    Жанр: криминальная комедия
    Год выпуска: 1989
    Продолжительность: 01:44:46
    Режиссёр: Юлиуш Махульский
    В ролях: Ежи Штур, Владимир Головин, Николай Караченцов, Виктор Степанов, Галина Петрова, Олег Шкловский, Лиза Махульска, Василий Мищенко, Владимир Белоусов, Всеволод Сафонов
    Описание: 1925 год. В СССР - НЭП, в США - «сухой закон». Мафия чикагских бутлегеров разыскивает некоего Мика Нича — Микиту Нечипорука, который оказался стукачом. Выясняется, что он сбежал в советскую Одессу, где открывает «великий самогонный путь» по доставке спиртных напитков по побережью Северного Ледовитого океана из России в Америку. Для ликвидации предателя нанимается знаменитый киллер — американский гангстер польского происхождения по фамилии Поллак. Под видом профессора-энтомолога, следующего на Суматру ловить бабочек, Поллак прибывает в Одессу, «чтобы навестить могилу отца».
    Исходник: http://perectracker.org/viewtopic.php?t=4898613
    Семпл: http://multi-up.com/1077162
    Качество видео: HDTVRip
    Формат видео: AVI
    Видео: 720x432 (1.66:1), 25 fps, XviD build 64 ~1792 kbps avg, 0.23 bit/pixel
    Аудио: 48 kHz, AC3 Dolby Digital, 2/0 (L,R) ch, ~192 kbps avg

    MediaInfo

    General
    Complete name : C:\Users\samsung\Videos\Дежа вю 1989 HDTVRip....avi
    Format : AVI
    Format/Info : Audio Video Interleave
    File size : 1.46 GiB
    Duration : 1h 44mn
    Overall bit rate : 1 994 Kbps
    Writing application : VirtualDubMod 1.5.10.3 | www.virtualdub-fr.org || (build 2550/release)
    Writing library : VirtualDubMod build 2550/release
    Video
    ID : 0
    Format : MPEG-4 Visual
    Format profile : Advanced Simple@L5
    Format settings, BVOP : Yes
    Format settings, QPel : No
    Format settings, GMC : No warppoints
    Format settings, Matrix : Custom
    Codec ID : XVID
    Codec ID/Hint : XviD
    Duration : 1h 44mn
    Bit rate : 1 792 Kbps
    Width : 720 pixels
    Height : 432 pixels
    Display aspect ratio : 1.667
    Frame rate : 25.000 fps
    Color space : YUV
    Chroma subsampling : 4:2:0
    Bit depth : 8 bits
    Scan type : Progressive
    Bits/(Pixel*Frame) : 0.230
    Stream size : 1.31 GiB (90%)
    Writing library : XviD 64
    Audio
    ID : 1
    Format : AC-3
    Format/Info : Audio Coding 3
    Mode extension : CM (complete main)
    Codec ID : 2000
    Duration : 1h 44mn
    Bit rate mode : Constant
    Bit rate : 192 Kbps
    Channel(s) : 2 channels
    Channel positions : Front: L R
    Sampling rate : 48.0 KHz
    Bit depth : 16 bits
    Stream size : 144 MiB (10%)
    Alignment : Split accross interleaves
    Interleave, duration : 40 ms (1.00 video frame)
    Interleave, preload duration : 500 ms

    Скриншоты

    Скачать .torrent

    Скачать торрент-файл бесплатно и на максимальной скорости!

    Как скачивать? · Что такое торрент? · Рейтинг и ограничения

    !ВНИМАНИЕ!
    Сайт не распространяет и не хранит электронные версии произведений, а занимается лишь лишь предоставлением доступа к создаваемому пользователями каталогу ссылок на торрент-файлы, которые содержат только списки хеш-сумм, убедительная просьба с жалобами обращаться напрямую к пользователю. Файлы для обмена на трекере предоставлены пользователями сайта, и администрация не несёт ответственности за их содержание. Просьба не заливать файлы, защищенные авторскими правами, а также файлы нелегального содержания!


    _________________
    [Профиль] [ЛС]
    Показать сообщения:    
    Ответить на тему

    Текущее время: Сегодня, в 00:31

    Часовой пояс: GMT + 2



    Вы не можете начинать темы
    Вы не можете отвечать на сообщения
    Вы не можете редактировать свои сообщения
    Вы не можете удалять свои сообщения
    Вы не можете голосовать в опросах
    Вы не можете прикреплять файлы к сообщениям
    Вы не можете скачивать файлы