BitTorrentTracker PerecTracker.org
BitTorrentTracker PerecTracker.org
    
Регистрация  ·  Вход
 
 · 
Забыли пароль?

  • Дежа Вю (Юлиуш Махульский) [1989, криминальная комедия, HDTVRip]

    Ответить на тему
     
    Автор Сообщение

    Light

    Создавать темы 03-Дек-2015 00:13

           

    [Цитировать]

    Дежа Вю
    Жанр: криминальная комедия
    Год выпуска: 1989
    Продолжительность: 01:44:46
    Режиссёр: Юлиуш Махульский
    В ролях: Ежи Штур, Владимир Головин, Николай Караченцов, Виктор Степанов, Галина Петрова, Олег Шкловский, Лиза Махульска, Василий Мищенко, Владимир Белоусов, Всеволод Сафонов
    Описание: 1925 год. В СССР - НЭП, в США - «сухой закон». Мафия чикагских бутлегеров разыскивает некоего Мика Нича — Микиту Нечипорука, который оказался стукачом. Выясняется, что он сбежал в советскую Одессу, где открывает «великий самогонный путь» по доставке спиртных напитков по побережью Северного Ледовитого океана из России в Америку. Для ликвидации предателя нанимается знаменитый киллер — американский гангстер польского происхождения по фамилии Поллак. Под видом профессора-энтомолога, следующего на Суматру ловить бабочек, Поллак прибывает в Одессу, «чтобы навестить могилу отца».
    Исходник: http://perectracker.org/viewtopic.php?t=4898613
    Семпл:http://multi-up.com/1077169
    Качество видео: HDTVRip
    Формат видео: AVI
    Видео: 640x384 (1.66:1), 25 fps, XviD build 64 ~857 kbps avg, 0.14 bit/pixel
    Аудио: 48 kHz, MPEG Layer 3, 2 ch, ~128.00 kbps avg

    MediaInfo

    General
    Complete name : D:\Фильмы\Дежа вю 1989 -HDTVRip-.avi
    Format : AVI
    Format/Info : Audio Video Interleave
    File size : 746 MiB
    Duration : 1h 44mn
    Overall bit rate : 995 Kbps
    Writing application : VirtualDubMod 1.5.10.3 | www.virtualdub-fr.org || (build 2550/release)
    Writing library : VirtualDubMod build 2550/release
    Video
    ID : 0
    Format : MPEG-4 Visual
    Format profile : Advanced Simple@L5
    Format settings, BVOP : Yes
    Format settings, QPel : No
    Format settings, GMC : No warppoints
    Format settings, Matrix : Custom
    Codec ID : XVID
    Codec ID/Hint : XviD
    Duration : 1h 44mn
    Bit rate : 857 Kbps
    Width : 640 pixels
    Height : 384 pixels
    Display aspect ratio : 1.667
    Frame rate : 25.000 fps
    Color space : YUV
    Chroma subsampling : 4:2:0
    Bit depth : 8 bits
    Scan type : Progressive
    Bits/(Pixel*Frame) : 0.139
    Stream size : 642 MiB (86%)
    Writing library : XviD 64
    Audio
    ID : 1
    Format : MPEG Audio
    Format version : Version 1
    Format profile : Layer 3
    Codec ID : 55
    Codec ID/Hint : MP3
    Duration : 1h 44mn
    Bit rate mode : Constant
    Bit rate : 128 Kbps
    Channel(s) : 2 channels
    Sampling rate : 48.0 KHz
    Stream size : 95.9 MiB (13%)
    Alignment : Aligned on interleaves
    Interleave, duration : 40 ms (1.00 video frame)
    Interleave, preload duration : 504 ms
    Writing library : LAME3.99r
    Encoding settings : -m s -V 4 -q 2 -lowpass 17 -b 128

    Скриншоты

    Торент файл перезалит 28.11.2015 ,сделал рип с исходника лучшего качества(со всеми фрагментами ,которых небыло в предыдущем исходнике).
    Скачать .torrent

    Скачать торрент-файл бесплатно и на максимальной скорости!

    Как скачивать? · Что такое торрент? · Рейтинг и ограничения

    !ВНИМАНИЕ!
    Сайт не распространяет и не хранит электронные версии произведений, а занимается лишь лишь предоставлением доступа к создаваемому пользователями каталогу ссылок на торрент-файлы, которые содержат только списки хеш-сумм, убедительная просьба с жалобами обращаться напрямую к пользователю. Файлы для обмена на трекере предоставлены пользователями сайта, и администрация не несёт ответственности за их содержание. Просьба не заливать файлы, защищенные авторскими правами, а также файлы нелегального содержания!


    _________________
    [Профиль] [ЛС]
    Показать сообщения:    
    Ответить на тему

    Текущее время: Сегодня, в 14:55

    Часовой пояс: GMT + 2



    Вы не можете начинать темы
    Вы не можете отвечать на сообщения
    Вы не можете редактировать свои сообщения
    Вы не можете удалять свои сообщения
    Вы не можете голосовать в опросах
    Вы не можете прикреплять файлы к сообщениям
    Вы не можете скачивать файлы