BitTorrentTracker PerecTracker.org
BitTorrentTracker PerecTracker.org
    
Регистрация  ·  Вход
 
 · 
Забыли пароль?

  • Невестка (Ходжакули Нарлиев) [1971, Драма, DVDRip-AVC]

    Ответить на тему
     
    Автор Сообщение

    Light

    Создавать темы 03-Дек-2015 00:13

           

    [Цитировать]

    Невестка
    Жанр: Драма
    Год выпуска: 1971
    Продолжительность: 01:15:17
    Режиссёр: Ходжакули Нарлиев
    В ролях: Майя (Мая-Гозель) Аймедова, Ходжан Овезгеленов, Ходжаберды Нарлиев, Хоммат Муллык, Айнабат Аманлиева, Огулькурбан Дурдыева, Арслан Мурадов, Мерген Ниязов, Баба Аннанов...
    Описание: В основе фильма подлинный факт, свидетелями которого были братья Нарлиевы. На том же разъезде, где они провели детство, жили два человека - старый чабан и его невестка - ее муж погиб на фронте. Но она не верила в его гибель и ждала...

    Релиз:

    Качество видео: DVDRip-AVC
    Формат видео: MKV
    Видео: AVC, 1160 kbps, 700 x 396 @ 746 x 396, 25 fps
    Аудио: AC-3, 224 kbps, 2 ch, 48 kHz
    Субтитры: Английские, VobSub

    MediaInfo

    Общее
    Уникальный идентификатор : 185358619547812481213659503787287553746 (0x8B72C5868317234AA0491747FE20A6D2)
    Полное имя : D:\00-Невестка\Невестка-DVDRip-AVC-MG.mkv
    Формат : Matroska
    Версия формата : Version 4 / Version 2
    Размер файла : 744 Мбайт
    Продолжительность : 1 ч. 15 м.
    Общий поток : 1382 Кбит/сек
    Дата кодирования : UTC 2015-11-28 12:54:49
    Программа кодирования : mkvmerge v8.5.2 ('Crosses') 64bit
    Библиотека кодирования : libebml v1.3.3 libmatroska v1.4.4
    DURATION : 01:12:48.640000000
    NUMBER_OF_FRAMES : 269
    NUMBER_OF_BYTES : 947064
    _STATISTICS_WRITING_APP : mkvmerge v8.5.2 ('Crosses') 64bit
    _STATISTICS_WRITING_DATE_UTC : 2015-11-28 12:54:49
    _STATISTICS_TAGS : BPS DURATION NUMBER_OF_FRAMES NUMBER_OF_BYTES
    Видео
    Идентификатор : 1
    Формат : AVC
    Формат/Информация : Advanced Video Codec
    Профиль формата : High@L4.1
    Параметр CABAC формата : Да
    Параметр ReFrames формата : 12 кадров
    Идентификатор кодека : V_MPEG4/ISO/AVC
    Продолжительность : 1 ч. 15 м.
    Битрейт : 1160 Кбит/сек
    Ширина : 700 пикселей
    Высота : 396 пикселей
    Соотношение сторон : 1,886
    Режим частоты кадров : Постоянный
    Частота кадров : 25,000 кадров/сек
    Цветовое пространство : YUV
    Субдискретизация насыщенности : 4:2:0
    Битовая глубина : 8 бит
    Тип развёртки : Прогрессивная
    Бит/(Пиксели*Кадры) : 0.167
    Размер потока : 609 Мбайт (82%)
    Заголовок : Fomatash for СПАМ
    Библиотека кодирования : x264 core 146 r2538 121396c
    Настройки программы : cabac=1 / ref=12 / deblock=1:-1:-1 / analyse=0x3:0x133 / me=umh / subme=9 / psy=1 / psy_rd=1.00:0.15 / mixed_ref=1 / me_range=32 / chroma_me=1 / trellis=2 / 8x8dct=1 / cqm=0 / deadzone=21,11 / fast_pskip=0 / chroma_qp_offset=-3 / threads=6 / lookahead_threads=1 / sliced_threads=0 / nr=0 / decimate=1 / interlaced=0 / bluray_compat=0 / constrained_intra=0 / bframes=9 / b_pyramid=2 / b_adapt=2 / b_bias=0 / direct=3 / weightb=1 / open_gop=0 / weightp=2 / keyint=250 / keyint_min=25 / scenecut=40 / intra_refresh=0 / rc_lookahead=40 / rc=2pass / mbtree=1 / bitrate=1160 / ratetol=1.0 / qcomp=0.60 / qpmin=10 / qpmax=51 / qpstep=4 / cplxblur=20.0 / qblur=0.5 / vbv_maxrate=50000 / vbv_bufsize=62500 / nal_hrd=none / filler=0 / ip_ratio=1.40 / aq=1:1.00
    Язык : Russian
    Default : Да
    Forced : Нет
    Аудио
    Идентификатор : 2
    Формат : AC-3
    Формат/Информация : Audio Coding 3
    Расширение режима : CM (complete main)
    Параметр Endianness формата : Big
    Идентификатор кодека : A_AC3
    Продолжительность : 1 ч. 15 м.
    Вид битрейта : Постоянный
    Битрейт : 224 Кбит/сек
    Каналы : 2 канала
    Расположение каналов : Front: L R
    Частота : 48,0 КГц
    Метод сжатия : С потерями
    Размер потока : 121 Мбайт (16%)
    Заголовок : AC3-2 канала
    Язык : Russian
    Default : Да
    Forced : Нет
    Текст
    Идентификатор : 3
    Формат : VobSub
    Идентификатор кодека : S_VOBSUB
    Идентификатор кодека/Информация : Picture based subtitle format used on DVDs
    Заголовок : VobSub
    Язык : English
    Default : Нет
    Forced : Нет

    Скриншоты

    Прошу учесть!
    Раздавать могу
    только
    с 23:00 до 5:00 по Москве
    Спасибо всем!
    Скачать .torrent

    Скачать торрент-файл бесплатно и на максимальной скорости!

    Как скачивать? · Что такое торрент? · Рейтинг и ограничения

    !ВНИМАНИЕ!
    Сайт не распространяет и не хранит электронные версии произведений, а занимается лишь лишь предоставлением доступа к создаваемому пользователями каталогу ссылок на торрент-файлы, которые содержат только списки хеш-сумм, убедительная просьба с жалобами обращаться напрямую к пользователю. Файлы для обмена на трекере предоставлены пользователями сайта, и администрация не несёт ответственности за их содержание. Просьба не заливать файлы, защищенные авторскими правами, а также файлы нелегального содержания!


    _________________
    [Профиль] [ЛС]
    Показать сообщения:    
    Ответить на тему

    Текущее время: Сегодня, в 02:01

    Часовой пояс: GMT + 2



    Вы не можете начинать темы
    Вы не можете отвечать на сообщения
    Вы не можете редактировать свои сообщения
    Вы не можете удалять свои сообщения
    Вы не можете голосовать в опросах
    Вы не можете прикреплять файлы к сообщениям
    Вы не можете скачивать файлы