BitTorrentTracker PerecTracker.org
BitTorrentTracker PerecTracker.org
    
Регистрация  ·  Вход
 
 · 
Забыли пароль?

  • Чужая сторона (Георгий Дульцев) [1991 г., социальная драма, TVRip]

    Ответить на тему
     
    Автор Сообщение

    Light

    Создавать темы 03-Дек-2015 00:13

           

    [Цитировать]

    Чужая сторона (2 серии)Год выпуска: 1991.
    Жанр: социальная драма.
    Продолжительность: 01:07:26 + 01:05:29 (02:12:55).
    Режиссер: Георгий Дульцев.
    В ролях:
    Валерий Прохоров, Вера Альховская, Михаил Васьков, Владимир Романовский, Алексей Бурыкин, Николай Алексеев, Игорь Фокин, Сергей Миронов, Виктор Гайнов, Михаил Зонненштраль, Вячеслав Воробьев-Ликеров, Сергей Клановский.
    Описание:
    Действие фильма разворачивается в ноябре 1982 года, в день кончины Л. И. Брежнева. Иван Чашкин, рабочий из сибирского поселка, спешит на похороны своей матери в Подмосковье. Похороны вождя создают многочисленные препятствия на пути героя фильма...
    Доп. информация:
    Страна: СССР .
    Киностудия: Союзтелефильм.
    Автор сценария: Геннадий Головин.
    Оператор: Феликс Кефчиян.
    Композитор: Юрий Каспаров.
    Художник: Владимир Савостьянов.
    Премьера: 4 июля 1992 года.

    Релиз
    Рип sharky.

    Качество: TVRip
    Формат: AVI
    Видео: 704x528 (1.33:1), 25 fps, XviD build 47 ~2137 kbps avg, 0.22 bit/pixel
    Аудио: 48 kHz, AC3 Dolby Digital, 2/0 (L,R) ch, ~192 kbps

    Отчет MI

    1-я серия:
    Общее
    Полное имя : Chuzhaya.storona.(2.serii).1991.XviD.TVRip.fenixclub\Chuzhaya.storona.1991.1-ya.seriya.avi
    Format : AVI
    Format/Info : Audio Video Interleave
    File size : 1.10 GiB
    Duration : 1h 7mn
    Overall bit rate : 2 340 Kbps
    Writing application : VirtualDubMod 1.5.10.2 (build 2540/release)
    Writing library : VirtualDubMod build 2540/release
    Video
    ID : 0
    Format : MPEG-4 Visual
    Format profile : Advanced Simple@L5
    Format settings, BVOP : 1
    Format settings, QPel : No
    Format settings, GMC : No warppoints
    Format settings, Matrix : Default (H.263)
    Codec ID : XVID
    Codec ID/Hint : XviD
    Duration : 1h 7mn
    Bit rate : 2 138 Kbps
    Width : 704 pixels
    Height : 528 pixels
    Display aspect ratio : 4:3
    Frame rate : 25.000 fps
    Color space : YUV
    Chroma subsampling : 4:2:0
    Bit depth : 8 bits
    Scan type : Progressive
    Compression mode : Lossy
    Bits/(Pixel*Frame) : 0.230
    Stream size : 1.01 GiB (91%)
    Writing library : XviD 1.2.0.dev47 (UTC 2006-11-01)
    Audio
    ID : 1
    Format : AC-3
    Format/Info : Audio Coding 3
    Mode extension : CM (complete main)
    Format settings, Endianness : Big
    Codec ID : 2000
    Duration : 1h 7mn
    Bit rate mode : Constant
    Bit rate : 192 Kbps
    Channel(s) : 2 channels
    Channel positions : Front: L R
    Sampling rate : 48.0 KHz
    Compression mode : Lossy
    Stream size : 92.6 MiB (8%)
    Alignment : Split accross interleaves
    Interleave, duration : 40 ms (1.00 video frame)
    Interleave, preload duratio : 500 ms.
    2-я серия:
    Общее
    Полное имя : Chuzhaya.storona.(2.serii).1991.XviD.TVRip.fenixclub\Chuzhaya.storona.1991.2-ya.seriya.avi
    Format : AVI
    Format/Info : Audio Video Interleave
    File size : 1.07 GiB
    Duration : 1h 5mn
    Overall bit rate : 2 340 Kbps
    Writing application : VirtualDubMod 1.5.10.2 (build 2540/release)
    Writing library : VirtualDubMod build 2540/release
    Video
    ID : 0
    Format : MPEG-4 Visual
    Format profile : Advanced Simple@L5
    Format settings, BVOP : 1
    Format settings, QPel : No
    Format settings, GMC : No warppoints
    Format settings, Matrix : Default (H.263)
    Codec ID : XVID
    Codec ID/Hint : XviD
    Duration : 1h 5mn
    Bit rate : 2 138 Kbps
    Width : 704 pixels
    Height : 528 pixels
    Display aspect ratio : 4:3
    Frame rate : 25.000 fps
    Color space : YUV
    Chroma subsampling : 4:2:0
    Bit depth : 8 bits
    Scan type : Progressive
    Compression mode : Lossy
    Bits/(Pixel*Frame) : 0.230
    Stream size : 1 001 MiB (91%)
    Writing library : XviD 1.2.0.dev47 (UTC 2006-11-01)
    Audio
    ID : 1
    Format : AC-3
    Format/Info : Audio Coding 3
    Mode extension : CM (complete main)
    Format settings, Endianness : Big
    Codec ID : 2000
    Duration : 1h 5mn
    Bit rate mode : Constant
    Bit rate : 192 Kbps
    Channel(s) : 2 channels
    Channel positions : Front: L R
    Sampling rate : 48.0 KHz
    Compression mode : Lossy
    Stream size : 89.9 MiB (8%)
    Alignment : Split accross interleaves
    Interleave, duration : 40 ms (1.00 video frame)
    Interleave, preload duratio : 500 ms.
    Скриншоты

    Альтернативный хост


    Скачать .torrent

    Скачать торрент-файл бесплатно и на максимальной скорости!

    Как скачивать? · Что такое торрент? · Рейтинг и ограничения

    !ВНИМАНИЕ!
    Сайт не распространяет и не хранит электронные версии произведений, а занимается лишь лишь предоставлением доступа к создаваемому пользователями каталогу ссылок на торрент-файлы, которые содержат только списки хеш-сумм, убедительная просьба с жалобами обращаться напрямую к пользователю. Файлы для обмена на трекере предоставлены пользователями сайта, и администрация не несёт ответственности за их содержание. Просьба не заливать файлы, защищенные авторскими правами, а также файлы нелегального содержания!


    _________________
    [Профиль] [ЛС]
    Показать сообщения:    
    Ответить на тему

    Текущее время: Сегодня, в 22:32

    Часовой пояс: GMT + 2



    Вы не можете начинать темы
    Вы не можете отвечать на сообщения
    Вы не можете редактировать свои сообщения
    Вы не можете удалять свои сообщения
    Вы не можете голосовать в опросах
    Вы не можете прикреплять файлы к сообщениям
    Вы не можете скачивать файлы