BitTorrentTracker PerecTracker.org
BitTorrentTracker PerecTracker.org
    
Регистрация  ·  Вход
 
 · 
Забыли пароль?

  • Гармонь (Игорь Савченко) [1934, музыкальная комедия, DVB, AVC]

    Ответить на тему
     
    Автор Сообщение

    Light

    Создавать темы 03-Дек-2015 00:13

           

    [Цитировать]

    Гармонь
    Жанр: музыкальная комедия
    Год выпуска: 1934
    Продолжительность: 0:55:51
    Режиссёр: Игорь Савченко
    В ролях: Пётр Савин, Зоя Фёдорова, Игорь Савченко, Ляля Сатеева, Николай Ярочкин, Николай Зырянов, Петр Горелов, Мария Ключарева
    Описание: Весёлый деревенский гармонист Тимошка избран секретарём комсомольской ячейки. Он перестаёт играть и принимается наводить порядок в селе. Однако без песен обостряется классовая борьба. Дело доходит до драки. И тогда Тимошка снова берёт в руки гармонь...
    Семпл: http://sendfile.su/1178968
    Качество видео: DVB
    Формат видео: MKV
    Видео: MPEG4 AVC 720x576 (4:3) 25,000 кадров/сек 3079 Кбит/сек
    Аудио: Русский MPEG1 Layer 2 48,0 КГц 2 канала 192 Кбит/сек

    MediaInfo

    Общее
    Уникальный идентификатор : 172983465392285173224572941378046014659 (0x822367518FDFE9CF9203E5837A2E34C3)
    Полное имя : E:\Torrents\СВОИ\Гармонь.mkv
    Формат : Matroska
    Версия формата : Version 4 / Version 2
    Размер файла : 1,30 Гбайт
    Продолжительность : 55 м.
    Общий поток : 3337 Кбит/сек
    Дата кодирования : UTC 2015-11-27 15:32:38
    Программа кодирования : mkvmerge v7.3.0 ('Nouages') 64bit built on Oct 22 2014 18:53:34
    Библиотека кодирования : libebml v1.3.0 + libmatroska v1.4.1
    DURATION : 00:55:50.976000000
    NUMBER_OF_FRAMES : 139624
    NUMBER_OF_BYTES : 80423424
    _STATISTICS_WRITING_APP : mkvmerge v7.3.0 ('Nouages') 64bit built on Oct 22 2014 18:53:34
    _STATISTICS_WRITING_DATE_UTC : 2015-11-27 15:32:38
    _STATISTICS_TAGS : BPS DURATION NUMBER_OF_FRAMES NUMBER_OF_BYTES
    Видео
    Идентификатор : 1
    Формат : AVC
    Формат/Информация : Advanced Video Codec
    Профиль формата : High@L3.0
    Параметр CABAC формата : Да
    Параметр ReFrames формата : 4 кадра
    Параметр GOP формата : M=4, N=32
    Идентификатор кодека : V_MPEG4/ISO/AVC
    Продолжительность : 55 м.
    Битрейт : 3079 Кбит/сек
    Ширина : 720 пикселей
    Высота : 576 пикселей
    Соотношение сторон : 4:3
    Соотношение сторон в оригинале : 4:3
    Режим частоты кадров : Постоянный
    Частота кадров : 25,000 кадров/сек
    Стандарт вещания : PAL
    Цветовое пространство : YUV
    Субдискретизация насыщенности : 4:2:0
    Битовая глубина : 8 бит
    Тип развёртки : MBAFF
    Порядок развёртки : Верхнее поле первое
    Бит/(Пиксели*Кадры) : 0.297
    Размер потока : 1,20 Гбайт (92%)
    Default : Да
    Forced : Нет
    Аудио
    Идентификатор : 2
    Формат : MPEG Audio
    Версия формата : Version 1
    Профиль формата : Layer 2
    Режим : Joint stereo
    Расширение режима : Intensity Stereo + MS Stereo
    Идентификатор кодека : A_MPEG/L2
    Идентификатор кодека/Подсказка : MP2
    Продолжительность : 55 м.
    Вид битрейта : Постоянный
    Битрейт : 192 Кбит/сек
    Каналы : 2 канала
    Частота : 48,0 КГц
    Метод сжатия : С потерями
    Задержка видео : -15 мс.
    Размер потока : 76,7 Мбайт (6%)
    Язык : Russian
    Default : Да
    Forced : Нет

    Скриншоты


    Скачать .torrent

    Скачать торрент-файл бесплатно и на максимальной скорости!

    Как скачивать? · Что такое торрент? · Рейтинг и ограничения

    !ВНИМАНИЕ!
    Сайт не распространяет и не хранит электронные версии произведений, а занимается лишь лишь предоставлением доступа к создаваемому пользователями каталогу ссылок на торрент-файлы, которые содержат только списки хеш-сумм, убедительная просьба с жалобами обращаться напрямую к пользователю. Файлы для обмена на трекере предоставлены пользователями сайта, и администрация не несёт ответственности за их содержание. Просьба не заливать файлы, защищенные авторскими правами, а также файлы нелегального содержания!


    _________________
    [Профиль] [ЛС]
    Показать сообщения:    
    Ответить на тему

    Текущее время: Сегодня, в 10:21

    Часовой пояс: GMT + 2



    Вы не можете начинать темы
    Вы не можете отвечать на сообщения
    Вы не можете редактировать свои сообщения
    Вы не можете удалять свои сообщения
    Вы не можете голосовать в опросах
    Вы не можете прикреплять файлы к сообщениям
    Вы не можете скачивать файлы