Register  ·  Log in
Forgot password?

  • Заклятие фараона / Under Wraps (Гордон Крам / Gordon Crum) [2014, Мультфильм, приключения, семейный, детский, полнометражный, SATRip] Dub

    Reply to topic
    Author Message


    Post 03-Dec-2015 01:13



    Заклятие фараона / Under Wraps
    Страна: США, Kickstart Productions Can
    Жанр: Мультфильм, приключения, семейный, детский, полнометражный
    Продолжительность: 00:43:40
    Год выпуска: 2014
    Перевод: Профессиональный (дублированный)
    Русские субтитры: нет
    Режиссёр: Гордон Крам / Gordon Crum
    Описание: Иногда маленькая шалость может стать началом невероятного приключения! В центре сюжета — история о том, как мальчик Дэнни случайно превратил своих родителей-археологов в мумии.
    Качество: SATRip
    Формат: AVI
    Видео: Xvid 720x400 25fps 2149kbps
    Аудио: AC3 48000Hz stereo 192kbps
    Субтитры: отсутствуют

    Подробные технические данные

    C:\Users\Dmitriy\Documents\18_18_18\Çàêëÿòèå ôàðàîíà.2014.XviD.SATRip.avi General Complete name : C:\Users\Dmitriy\Documents\18_18_18\Çàêëÿòèå ôàðàîíà.2014.XviD.SATRip.avi Format : AVI Format/Info : Audio Video Interleave File size : 734 MiB Duration : 43mn 40s Overall bit rate : 2 352 Kbps Movie name : Under Wraps Director : SATRip by Thunder Writing application : VirtualDubMod | || (build 2550/release) Original source form/Name : Cartoon Video #0 ID : 0 Format : MPEG-4 Visual Format profile : Advanced Simple@L5 Format settings, BVOP : Yes Format settings, QPel : No Format settings, GMC : No warppoints Format settings, Matrix : Default (H.263) Codec ID : XVID Codec ID/Hint : XviD Duration : 43mn 40s Bit rate : 2 150 Kbps Width : 720 pixels Height : 400 pixels Display aspect ratio : 16:9 Frame rate : 25.000 fps Color space : YUV Chroma subsampling : 4:2:0 Bit depth : 8 bits Scan type : Progressive Bits/(Pixel*Frame) : 0.299 Stream size : 671 MiB (91%) Writing library : XviD 1.2.1 (UTC 2008-12-04) Audio #1 ID : 1 Format : AC-3 Format/Info : Audio Coding 3 Mode extension : CM (complete main) Codec ID : 2000 Duration : 43mn 40s Bit rate mode : Constant Bit rate : 192 Kbps Channel(s) : 2 channels Channel positions : Front: L R Sampling rate : 48.0 KHz Bit depth : 16 bits Stream size : 60.0 MiB (8%) Alignment : Split accross interleaves Interleave, duration : 40 ms (1.00 video frame) Interleave, preload duration : 500 ms


    Download .torrent

    Download free and at maximum speed!

    How to Download? · What is a torrent? · Ratings and Limitations

    The site does not extend and does not store electronic(digital) versions of products, and only gives access to a reference catalogue created by users on torrent-files which contain only lists of the hash-sums, the earnest entreaty, with complaints(abuse) to access directly to the user. Files for an exchange on tracker are given by users of a site, and the administration does not bear the responsibility for their maintenance. The request to not fill in the files protected by copyrights, and also files of the illegal maintenance!

    [Profile] [PM]
    Display posts from previous:    
    Reply to topic

    The time now is: Today 00:23

    All times are GMT + 3 Hours

    You cannot post new topics in this forum
    You cannot reply to topics in this forum
    You cannot edit your posts in this forum
    You cannot delete your posts in this forum
    You cannot vote in polls in this forum
    You cannot attach files in this forum
    You cannot download files in this forum