Register  ·  Log in
Forgot password?

  • Рио 2 / Rio 2 (Карлос Салдана / Carlos Saldanha) [2014, США, Мультфильм, комедия, приключения, семейный, HDRip] Dub

    Reply to topic
    Author Message


    Post 03-Dec-2015 01:13



    Рио 2 / Rio 2
    Страна: США
    Жанр: Мультфильм, комедия, приключения, семейный
    Продолжительность: 01:41:11
    Год выпуска: 2014
    Перевод: Профессиональный (дублированный)
    Русские субтитры: нет-Режиссёр: Карлос Салдана / Carlos Saldanha-Роли озвучивали: Энн Хэтэуэй, Лесли Манн, Джейми Фокс, Джесси Айзенберг, Родриго Санторо, Энди Гарсиа, Трэйси Морган, Уилл Ай Эм, Джемейн Клемент, Кристин Ченоуэт-Описание: Блю, Джевел и их трое детей живут счастливой жизнью в волшебном городе Рио-де-Жанейро. Когда Джевел решает, что их детям нужно научиться жить как настоящим птицам, она настаивает на авантюрной поездке в дебри реки Амазонки. Там, пытаясь вписаться в новое окружение, Блю начинает беспокоиться, что может потерять Джевел и детей, идущих на зов дикой природы.-Семпл:Релиз от: -Качество: HDRip
    Формат: AVI
    Видео: XviD, 720x304, 1611 kbps, 23,976 fps
    Аудио: AC3, 48 kHz, 6 ch, 448 kbps
    Субтитры: отсутствуют

    Подробные технические данные

    General Complete name : Rio2.2014.D.HDRip.avi Format : AVI Format/Info : Audio Video Interleave File size : 1.46 GiB Duration : 1h 41mn Overall bit rate : 2 068 Kbps Writing application : VirtualDubMod | || (build 2550/release) Writing library : VirtualDubMod build 2550/release Video #0 ID : 0 Format : MPEG-4 Visual Format profile : Advanced Simple@L5 Format settings, BVOP : 2 Format settings, QPel : No Format settings, GMC : No warppoints Format settings, Matrix : Custom Codec ID : XVID Codec ID/Hint : XviD Duration : 1h 41mn Bit rate : 1 611 Kbps Width : 720 pixels Height : 304 pixels Display aspect ratio : 2.35:1 Frame rate : 23.976 fps Color space : YUV Chroma subsampling : 4:2:0 Bit depth : 8 bits Scan type : Progressive Compression mode : Lossy Bits/(Pixel*Frame) : 0.307 Stream size : 1.14 GiB (78%) Writing library : XviD 1.2.1 (UTC 2008-12-04) Audio #1 ID : 1 Format : AC-3 Format/Info : Audio Coding 3 Mode extension : CM (complete main) Format settings, Endianness : Big Codec ID : 2000 Duration : 1h 41mn Bit rate mode : Constant Bit rate : 448 Kbps Channel(s) : 6 channels Channel positions : Front: L C R, Side: L R, LFE Sampling rate : 48.0 KHz Bit depth : 16 bits Compression mode : Lossy Stream size : 324 MiB (22%) Alignment : Split accross interleaves Interleave, duration : 42 ms (1.00 video frame) Interleave, preload duration : 500 ms


    Download .torrent

    Download free and at maximum speed!

    How to Download? · What is a torrent? · Ratings and Limitations

    The site does not extend and does not store electronic(digital) versions of products, and only gives access to a reference catalogue created by users on torrent-files which contain only lists of the hash-sums, the earnest entreaty, with complaints(abuse) to access directly to the user. Files for an exchange on tracker are given by users of a site, and the administration does not bear the responsibility for their maintenance. The request to not fill in the files protected by copyrights, and also files of the illegal maintenance!

    [Profile] [PM]
    Display posts from previous:    
    Reply to topic

    The time now is: Today 10:42

    All times are GMT + 3 Hours

    You cannot post new topics in this forum
    You cannot reply to topics in this forum
    You cannot edit your posts in this forum
    You cannot delete your posts in this forum
    You cannot vote in polls in this forum
    You cannot attach files in this forum
    You cannot download files in this forum