BitTorrentTracker PerecTracker.org
BitTorrentTracker PerecTracker.org
    
Регистрация  ·  Вход
 
 · 
Забыли пароль?

  • (Contemporary Jazz) The O-Zone Percussion Group - Whiplash - 2001, (image+.cue), lossless

    Ответить на тему
     
    Автор Сообщение

    Columb

    Создавать темы 30-Июл-2013 10:36

           

    [Цитировать]

    The O-Zone Percussion Group / Whiplash
    Жанр: Contemporary Jazz
    Страна-производитель диска: USA
    Год издания: 2001
    Издатель (лейбл): Klavier Music Productions
    Аудиокодек: FLAC (*.flac)
    Тип рипа: image+.cue
    Битрейт аудио: lossless
    Продолжительность: 01:19:30
    Источник (релизер): WEB
    Наличие сканов в содержимом раздачи: да
    Треклист:
    01. i. Song of the Termite People [08:18]
    02. ii. Passagalia and Soliloquy [08:23]
    03. iii. Round Dance [08:49]
    04. J.S. Bach: Bouree [01:54]
    05. Jack Stamp: Daybreak [02:58]
    06. Claude Debussy: La FIlle aux Cheveaux de Lin (arr barton) [02:09]
    07. J.S. Bach: Prelude No.22 in Bflat min (WTC b.II.)- Bouree [03:39]
    08. George hamilton Green: Rainbow Ripples [02:48]
    09. William Bolcom: The Graceful Ghost [05:21]
    10. George Hamilton Green: Log Cabin Blues [02:56]
    11. George Hamilton Green: The Whistler [02:50]
    12. Billy Joel: Root Beer rag [05:16]
    13. Hank Levy: Whiplash [04:47]
    14. Bruce Yurko: Concerto for Percussion and Wind [19:20]

    Лог создания рипа

    Exact Audio Copy V1.0 beta 1 from 15. November 2010
    EAC extraction logfile from 4. December 2012, 11:39
    The O-Zone Percussion Group / Whiplash
    Used drive : PIONEER DVD-RW DVR-118L Adapter: 4 ID: 0
    Read mode : Secure
    Utilize accurate stream : Yes
    Defeat audio cache : Yes
    Make use of C2 pointers : No
    Read offset correction : 6
    Overread into Lead-In and Lead-Out : No
    Fill up missing offset samples with silence : Yes
    Delete leading and trailing silent blocks : No
    Null samples used in CRC calculations : Yes
    Used interface : Native Win32 interface for Win NT & 2000
    Used output format : Internal WAV Routines
    Sample format : 44.100 Hz; 16 Bit; Stereo
    TOC of the extracted CD
    Track | Start | Length | Start sector | End sector
    ---------------------------------------------------------
    1 | 0:00.01 | 8:18.34 | 1 | 37384
    2 | 8:18.35 | 8:23.10 | 37385 | 75119
    3 | 16:41.45 | 8:49.02 | 75120 | 114796
    4 | 25:30.47 | 1:53.61 | 114797 | 123332
    5 | 27:24.33 | 2:58.14 | 123333 | 136696
    6 | 30:22.47 | 2:08.60 | 136697 | 146356
    7 | 32:31.32 | 3:39.35 | 146357 | 162816
    8 | 36:10.67 | 2:47.61 | 162817 | 175402
    9 | 38:58.53 | 5:21.07 | 175403 | 199484
    10 | 44:19.60 | 2:55.64 | 199485 | 212673
    11 | 47:15.49 | 2:49.74 | 212674 | 225422
    12 | 50:05.48 | 5:16.14 | 225423 | 249136
    13 | 55:21.62 | 4:47.34 | 249137 | 270695
    14 | 60:09.21 | 19:20.35 | 270696 | 357730
    Range status and errors
    Selected range
    Filename E:\EAC\The O-Zone Percussion Group - Whiplash.wav
    Peak level 100.0 %
    Extraction speed 0.5 X
    Range quality 100.0 %
    Test CRC 3FE2DD9C
    Copy CRC 3FE2DD9C
    Copy OK
    No errors occurred
    AccurateRip summary
    Track 1 accurately ripped (confidence 4) [885AB9DA]
    Track 2 accurately ripped (confidence 4) [EFF753FD]
    Track 3 accurately ripped (confidence 4) [A12ADD06]
    Track 4 accurately ripped (confidence 4) [5D26A8D9]
    Track 5 accurately ripped (confidence 4) [4E2526F6]
    Track 6 accurately ripped (confidence 4) [7F4DDBE1]
    Track 7 accurately ripped (confidence 4) [11F90617]
    Track 8 accurately ripped (confidence 4) [BF2546CC]
    Track 9 accurately ripped (confidence 4) [BB140CC2]
    Track 10 accurately ripped (confidence 4) [71F09FAE]
    Track 11 accurately ripped (confidence 4) [3EE4D5AC]
    Track 12 accurately ripped (confidence 4) [E8F93320]
    Track 13 accurately ripped (confidence 4) [33B8B27A]
    Track 14 accurately ripped (confidence 4) [4865275A]
    All tracks accurately ripped
    End of status report
    ==== Log checksum DF2232C4DC20BCDA1EBEAA9CEF8DE9816278D1D5859EE35556423543F2776937 ====

    Содержание индексной карты (.CUE)

    REM GENRE Percussion
    REM DATE 2001
    REM DISCID A012A10E
    REM COMMENT "ExactAudioCopy v1.0b3"
    PERFORMER "The O-Zone Percussion Group"
    TITLE "Whiplash"
    FILE "The O-Zone Percussion Group - Whiplash.flac" WAVE
    TRACK 01 AUDIO
    TITLE "Timothy Borgue (b.1947)- Marimba Concetino I. Song of the Termite People"
    PERFORMER "The O-Zone Percussion Group"
    FLAGS DCP
    INDEX 00 00:00:00
    INDEX 01 00:00:01
    TRACK 02 AUDIO
    TITLE "Timothy Borgue - Marimba Concetino II. Passagalia and Soliloquy"
    PERFORMER "The O-Zone Percussion Group"
    FLAGS DCP
    INDEX 01 08:18:35
    TRACK 03 AUDIO
    TITLE "Timothy Borgue - Marimba Concetino III. Round Dance"
    PERFORMER "The O-Zone Percussion Group"
    FLAGS DCP
    INDEX 01 16:41:45
    TRACK 04 AUDIO
    TITLE "J.S. Bach - Bouree"
    PERFORMER "The O-Zone Percussion Group"
    FLAGS DCP
    INDEX 01 25:30:47
    TRACK 05 AUDIO
    TITLE "Jack Stamp (b.1954) - Daybreak"
    PERFORMER "The O-Zone Percussion Group"
    FLAGS DCP
    INDEX 01 27:24:33
    TRACK 06 AUDIO
    TITLE "Claude Debussy (1862-1918) La FIlle aux Cheveaux de Lin (arr barton)"
    PERFORMER "The O-Zone Percussion Group"
    FLAGS DCP
    INDEX 01 30:22:47
    TRACK 07 AUDIO
    TITLE "J.S. Bach - Prelude No.22 in Bflat min (WTC b.II.)- Bouree"
    PERFORMER "The O-Zone Percussion Group"
    FLAGS DCP
    INDEX 01 32:31:32
    TRACK 08 AUDIO
    TITLE "George hamilton Greer (1989-1970) Rainbow Ripples"
    PERFORMER "The O-Zone Percussion Group"
    FLAGS DCP
    INDEX 01 36:10:67
    TRACK 09 AUDIO
    TITLE "William Bolcom -(b.1938) The Graceful Ghost"
    PERFORMER "The O-Zone Percussion Group"
    FLAGS DCP
    INDEX 01 38:58:53
    TRACK 10 AUDIO
    TITLE "George hamilton Greer (1893-1970) Log Cabin Blues"
    PERFORMER "The O-Zone Percussion Group"
    FLAGS DCP
    INDEX 01 44:19:60
    TRACK 11 AUDIO
    TITLE "George hamilton Greer (1893-1970) - The Whistler"
    PERFORMER "The O-Zone Percussion Group"
    FLAGS DCP
    INDEX 01 47:15:49
    TRACK 12 AUDIO
    TITLE "Billy Joel (b.1949) - Root Beer rag"
    PERFORMER "The O-Zone Percussion Group"
    FLAGS DCP
    INDEX 01 50:05:48
    TRACK 13 AUDIO
    TITLE "Hank Levy - Whiplash"
    PERFORMER "The O-Zone Percussion Group"
    FLAGS DCP
    INDEX 01 55:21:62
    TRACK 14 AUDIO
    TITLE "Bruce Yurko (b.1951) - Concerto for Percussion and Wind"
    PERFORMER "The O-Zone Percussion Group"
    FLAGS DCP
    INDEX 01 60:09:21

    Лог проверки качества

    Exact Audio Copy V1.0 beta 1 from 15. November 2010
    EAC extraction logfile from 4. December 2012, 11:39
    The O-Zone Percussion Group / Whiplash
    Used drive : PIONEER DVD-RW DVR-118L Adapter: 4 ID: 0
    Read mode : Secure
    Utilize accurate stream : Yes
    Defeat audio cache : Yes
    Make use of C2 pointers : No
    Read offset correction : 6
    Overread into Lead-In and Lead-Out : No
    Fill up missing offset samples with silence : Yes
    Delete leading and trailing silent blocks : No
    Null samples used in CRC calculations : Yes
    Used interface : Native Win32 interface for Win NT & 2000
    Used output format : Internal WAV Routines
    Sample format : 44.100 Hz; 16 Bit; Stereo
    TOC of the extracted CD
    Track | Start | Length | Start sector | End sector
    ---------------------------------------------------------
    1 | 0:00.01 | 8:18.34 | 1 | 37384
    2 | 8:18.35 | 8:23.10 | 37385 | 75119
    3 | 16:41.45 | 8:49.02 | 75120 | 114796
    4 | 25:30.47 | 1:53.61 | 114797 | 123332
    5 | 27:24.33 | 2:58.14 | 123333 | 136696
    6 | 30:22.47 | 2:08.60 | 136697 | 146356
    7 | 32:31.32 | 3:39.35 | 146357 | 162816
    8 | 36:10.67 | 2:47.61 | 162817 | 175402
    9 | 38:58.53 | 5:21.07 | 175403 | 199484
    10 | 44:19.60 | 2:55.64 | 199485 | 212673
    11 | 47:15.49 | 2:49.74 | 212674 | 225422
    12 | 50:05.48 | 5:16.14 | 225423 | 249136
    13 | 55:21.62 | 4:47.34 | 249137 | 270695
    14 | 60:09.21 | 19:20.35 | 270696 | 357730
    Range status and errors
    Selected range
    Filename E:\EAC\The O-Zone Percussion Group - Whiplash.wav
    Peak level 100.0 %
    Extraction speed 0.5 X
    Range quality 100.0 %
    Test CRC 3FE2DD9C
    Copy CRC 3FE2DD9C
    Copy OK
    No errors occurred
    AccurateRip summary
    Track 1 accurately ripped (confidence 4) [885AB9DA]
    Track 2 accurately ripped (confidence 4) [EFF753FD]
    Track 3 accurately ripped (confidence 4) [A12ADD06]
    Track 4 accurately ripped (confidence 4) [5D26A8D9]
    Track 5 accurately ripped (confidence 4) [4E2526F6]
    Track 6 accurately ripped (confidence 4) [7F4DDBE1]
    Track 7 accurately ripped (confidence 4) [11F90617]
    Track 8 accurately ripped (confidence 4) [BF2546CC]
    Track 9 accurately ripped (confidence 4) [BB140CC2]
    Track 10 accurately ripped (confidence 4) [71F09FAE]
    Track 11 accurately ripped (confidence 4) [3EE4D5AC]
    Track 12 accurately ripped (confidence 4) [E8F93320]
    Track 13 accurately ripped (confidence 4) [33B8B27A]
    Track 14 accurately ripped (confidence 4) [4865275A]
    All tracks accurately ripped
    End of status report
    ==== Log checksum DF2232C4DC20BCDA1EBEAA9CEF8DE9816278D1D5859EE35556423543F2776937 ====
    Скачать .torrent

    Скачать торрент-файл бесплатно и на максимальной скорости!

    Как скачивать? · Что такое торрент? · Рейтинг и ограничения

    !ВНИМАНИЕ!
    Сайт не распространяет и не хранит электронные версии произведений, а занимается лишь лишь предоставлением доступа к создаваемому пользователями каталогу ссылок на торрент-файлы, которые содержат только списки хеш-сумм, убедительная просьба с жалобами обращаться напрямую к пользователю. Файлы для обмена на трекере предоставлены пользователями сайта, и администрация не несёт ответственности за их содержание. Просьба не заливать файлы, защищенные авторскими правами, а также файлы нелегального содержания!

    [Профиль] [ЛС]
    Показать сообщения:    
    Ответить на тему

    Текущее время: Сегодня, в 22:00

    Часовой пояс: GMT + 2



    Вы не можете начинать темы
    Вы не можете отвечать на сообщения
    Вы не можете редактировать свои сообщения
    Вы не можете удалять свои сообщения
    Вы не можете голосовать в опросах
    Вы не можете прикреплять файлы к сообщениям
    Вы не можете скачивать файлы