BitTorrentTracker PerecTracker.org
BitTorrentTracker PerecTracker.org
    
Регистрация  ·  Вход
 
 · 
Забыли пароль?

  • [ATV3] Аномалия / The Anomaly (Ноэль Кларк / Noel Clarke ) [2014, Великобритания, Фантастика, боевик, триллер, BDRip, HD (1080p)] DUB + Original + sub (eng)

    Ответить на тему
     
    Автор Сообщение

    Flirldrerve

    Создавать темы 03-Дек-2015 00:12

           

    [Цитировать]

    Аномалия / The Anomaly
    -
    5.508 / 10 4.80 / 10
    -Год выпуска: 2014
    Страна: Великобритания
    Жанр: Фантастика, боевик, триллер
    Продолжительность: 01:36:38
    Перевод: Профессиональный (дублированный) (R5)
    Оригинальная аудиодорожка: Есть
    Cубтитры: Английские
    Режиссёр: Ноэль Кларк
    Сценарий: Саймон Льюис
    Продюсер: Ноэль Кларк, Джеймс Харрис, Марк Лэйн
    Оператор: Дэвид Кацнелсон
    Композитор: Том Линден
    Художник: Пол Барнс, Ник Акасс, Эллиот Скотт
    Монтаж: Томми Боулдинг
    В ролях: Ноэль Кларк, Иен Сомерхолдер, Брайан Кокс, Алексис Нэп, Люк Хемсворт, Ниал Грег Фултон, Майкл Биспинг, Али Кук, Арт Паркинсон, Рубен Дуброу
    Мировая премьера: 19 июня 2014
    Релиз на DVD: 6 ноября 2014, «Двадцатый Век Фокс СНГ»
    Описание: Райан Рив, как и любой солдат, всегда готов к любым поворотам судьбы. Этому не помешает ни отстранение от службы, ни тяжелое психологическое состояние – ведь ты солдат. Но даже профессионалам требуется собрать всю силу воли в кулак, чтобы вырваться из состояния, когда твоим сознанием кто-то управляет. Когда только мгновенные промежутки времени подконтрольны подсознанию, чтобы узнать правду, понять как собственная судьба связана с мальчиком Алексом, с которым оказываешься внутри темного движущегося фургона... Где реальность и как остановить то, что происходит? Под силу ли воину преодолеть все немыслимые препятствия и выяснить причину своего аномального поведения и кто за этим стоит?-Качество исходника: Кинозал, Аномалия / The Anomaly / 2014 / ДБ / Blu-Ray Remux (1080p)
    Качество: BDRip
    Тип: HD (1080p)
    Контейнер: M4V
    Видео: H.264, 1920x816, 2.35:1, 8 000 Kbps, 23.976 fps
    Аудио 1: Русский/Профессиональный (дублированный) (R5), AAC / 2.0 / 156 Kbps / 48.0 KHz
    Аудио 2: Английский/Оригинальная дорожка , AAC / 2.0 / 156 Kbps / 48.0 KHz
    Аудио 3: Русский/Профессиональный (дублированный) (R5), AC-3 / 5.1 / 384 Kbps / 48.0 KHz
    Аудио 4: Английский/Оригинальная дорожка , AC-3 / 5.1 / 640 Kbps / 48.0 KHz
    Субтитры: Английские полные
    -

    iTunes Meta Tags

    Sort Name: Anomaly
    XID: Apple:vendor_id:2014-769744
    contentID: 890812833
    Copyright: © 2013 Anomaly Picture Ltd. All Rights Reserved
    Screenwriters: Саймон Льюис
    Producers: Ноэль Кларк, Джеймс Харрис, Марк Лэйн
    Director: Ноэль Кларк
    Cast: Ноэль Кларк, Иен Сомерхолдер, Брайан Кокс, Алексис Нэп, Люк Хемсворт, Ниал Грег Фултон, Майкл Биспинг, Али Кук, Арт Паркинсон, Reuben Dabrow
    Studio: Unstoppable Entertainment
    Rating: 131
    Long Description: Бывший солдат попадает в плен. Очнувшись, он узнает, что у него осталось всего несколько минут, чтобы понять, как он туда попал...
    Description: Бывший солдат попадает в плен. Очнувшись, он узнает, что у него осталось всего несколько минут, чтобы понять, как он туда попал...
    Release Date: 2014-06-19T08:00:00Z
    Genre: Sci-Fi & Fantasy
    Artist: Noel Clarke
    Name: The Anomaly

    MediaInfo

    General
    Complete name                            : /Users/imac/HandBrake/The Anomaly (1080p HD).m4v
    Format                                   : MPEG-4
    Codec ID                                 : M4V
    File size                                : 6.31 GiB
    Duration                                 : 1h 36mn
    Overall bit rate mode                    : Variable
    Overall bit rate                         : 9 344 Kbps
    Movie name                               : The Anomaly
    Performer                                : Noel Clarke
    Genre                                    : Sci-Fi & Fantasy
    Recorded date                            : UTC 2014-06-19 08:00:00
    Encoded date                             : UTC 2014-12-26 08:33:45
    Tagged date                              : UTC 2014-12-26 08:50:43
    Copyright                                : © 2013 Anomaly Picture Ltd. All Rights Reserved
    Cover                                    : Yes
    sonm                                     : Anomaly
    desc                                     : Бывший солдат попадает в плен. Очнувшись, он узнает, что у него осталось всего несколько минут, чтобы понять, как он туда попал...
    ldes                                     : Бывший солдат попадает в плен. Очнувшись, он узнает, что у него осталось всего несколько минут, чтобы понять, как он туда попал...
    hdvd                                     : 2
    stik                                     : 9
    rtng                                     : 0
    cnID                                     : 890812833
    xid                                      : Apple:vendor_id:2014-769744
    iTunEXTC                                 : uk-movie|15|350|
    iTunMOVI                                 : <?xml version=\"1.0\" encoding=\"UTF-8\"?> / <!DOCTYPE plist PUBLIC \"-//Apple//DTD PLIST 1.0//EN\" \"http://anonym.to/?http://www.apple.com/DTDs/PropertyList-1.0.dtd\"> / <plist version=\"1.0\"> / <dict> /  <key>cast</key> /  <array> /   <dict> /    <key>name</key> /    <string>Ноэль Кларк</string> /   </dict> /   <dict> /    <key>name</key> /    <string>Иен Сомерхолдер</string> /   </dict> /   <dict> /    <key>name</key> /    <string>Брайан Кокс</string> /   </dict> /   <dict> /    <key>name</key> /    <string>Алексис Нэп</string> /   </dict> /   <dict> /    <key>name</key> /    <string>Люк Хемсворт</string> /   </dict> /   <dict> /    <key>name</key> /    <string>Ниал Грег Фултон</string> /   </dict> /   <dict> /    <key>name</key> /    <string>Майкл Биспинг</string> /   </dict> /   <dict> /    <key>name</key> /    <string>Али Кук</string> /   </dict> /   <dict> /    <key>name</key> /    <string>Арт Паркинсон</string> /   </dict> /   <dict> /    <key>name</key> /    <string>Reuben Dabrow</string> /   </dict> /  </array> /  <key>directors</key> /  <array> /   <dict> /    <key>name</key> /    <string>Ноэль Кларк</string> /   </dict> /  </array> /  <key>producers</key> /  <array> /   <dict> /    <key>name</key> /    <string>Ноэль Кларк</string> /   </dict> /   <dict> /    <key>name</key> /    <string>Джеймс Харрис</string> /   </dict> /   <dict> /    <key>name</key> /    <string>Марк Лэйн</string> /   </dict> /  </array> /  <key>screenwriters</key> /  <array> /   <dict> /    <key>name</key> /    <string>Саймон Льюис</string> /   </dict> /  </array> /  <key>studio</key> /  <string>Unstoppable Entertainment</string> / </dict> / </plist>
    Video #1
    ID                                       : 1
    Format                                   : AVC
    Format/Info                              : Advanced Video Codec
    Format profile                           : High@L4.0
    Format settings, CABAC                   : Yes
    Format settings, ReFrames                : 4 frames
    Codec ID                                 : avc1
    Codec ID/Info                            : Advanced Video Coding
    Duration                                 : 1h 36mn
    Bit rate mode                            : Variable
    Bit rate                                 : 8 000 Kbps
    Width                                    : 1 920 pixels
    Height                                   : 816 pixels
    Display aspect ratio                     : 2.35:1
    Frame rate mode                          : Variable
    Frame rate                               : 23.976 fps
    Minimum frame rate                       : 23.810 fps
    Maximum frame rate                       : 24.272 fps
    Color space                              : YUV
    Chroma subsampling                       : 4:2:0
    Bit depth                                : 8 bits
    Scan type                                : Progressive
    Bits/(Pixel*Frame)                       : 0.213
    Stream size                              : 5.40 GiB (86%)
    Writing library                          : x264 core 142 r2479 dd79a61
    Encoding settings                        : cabac=1 / ref=4 / deblock=1:0:0 / analyse=0x3:0x133 / me=umh / subme=10 / psy=1 / psy_rd=1.00:0.00 / mixed_ref=1 / me_range=32 / chroma_me=1 / trellis=2 / 8x8dct=1 / cqm=0 / deadzone=21,11 / fast_pskip=1 / chroma_qp_offset=-2 / threads=12 / lookahead_threads=1 / sliced_threads=0 / nr=0 / decimate=1 / interlaced=0 / bluray_compat=0 / constrained_intra=0 / bframes=4 / b_pyramid=2 / b_adapt=2 / b_bias=0 / direct=3 / weightb=1 / open_gop=0 / weightp=2 / keyint=240 / keyint_min=24 / scenecut=40 / intra_refresh=0 / rc_lookahead=40 / rc=2pass / mbtree=0 / bitrate=8000 / ratetol=1.0 / qcomp=0.60 / qpmin=0 / qpmax=69 / qpstep=4 / cplxblur=20.0 / qblur=0.5 / vbv_maxrate=25000 / vbv_bufsize=25000 / nal_hrd=none / filler=0 / ip_ratio=1.40 / pb_ratio=1.30 / aq=1:1.00
    Language                                 : English
    Encoded date                             : UTC 2014-12-26 08:33:45
    Tagged date                              : UTC 2014-12-26 08:34:53
    Color primaries                          : BT.709-5, BT.1361, IEC 61966-2-4, SMPTE RP177
    Transfer characteristics                 : BT.709-5, BT.1361
    Matrix coefficients                      : BT.709-5, BT.1361, IEC 61966-2-4 709, SMPTE RP177
    Video #2
    ID                                       : 8
    Format                                   : JPEG
    Codec ID                                 : jpeg
    Duration                                 : 1h 36mn
    Bit rate mode                            : Variable
    Bit rate                                 : 444 bps
    Width                                    : 640 pixels
    Height                                   : 272 pixels
    Display aspect ratio                     : 2.35:1
    Frame rate mode                          : Variable
    Frame rate                               : 0.002 fps
    Minimum frame rate                       : 0.002 fps
    Maximum frame rate                       : 0.003 fps
    Color space                              : YUV
    Chroma subsampling                       : 4:2:0
    Bit depth                                : 8 bits
    Compression mode                         : Lossy
    Bits/(Pixel*Frame)                       : 1.275
    Stream size                              : 326 KiB (0%)
    Language                                 : English
    Encoded date                             : UTC 2014-12-26 08:34:58
    Tagged date                              : UTC 2014-12-26 08:34:58
    Audio #1
    ID                                       : 2
    Format                                   : AAC
    Format/Info                              : Advanced Audio Codec
    Format profile                           : LC
    Codec ID                                 : 40
    Duration                                 : 1h 36mn
    Bit rate mode                            : Variable
    Bit rate                                 : 156 Kbps
    Maximum bit rate                         : 228 Kbps
    Channel(s)                               : 2 channels
    Channel positions                        : Front: L R
    Sampling rate                            : 48.0 KHz
    Compression mode                         : Lossy
    Stream size                              : 108 MiB (2%)
    Language                                 : Russian
    Encoded date                             : UTC 2014-12-26 08:33:45
    Tagged date                              : UTC 2014-12-26 08:34:33
    Audio #2
    ID                                       : 3
    Format                                   : AAC
    Format/Info                              : Advanced Audio Codec
    Format profile                           : LC
    Codec ID                                 : 40
    Duration                                 : 1h 36mn
    Bit rate mode                            : Variable
    Bit rate                                 : 156 Kbps
    Maximum bit rate                         : 250 Kbps
    Channel(s)                               : 2 channels
    Channel positions                        : Front: L R
    Sampling rate                            : 48.0 KHz
    Compression mode                         : Lossy
    Stream size                              : 108 MiB (2%)
    Language                                 : English
    Encoded date                             : UTC 2014-12-26 08:33:45
    Tagged date                              : UTC 2014-12-26 08:34:31
    Audio #3
    ID                                       : 4
    Format                                   : AC-3
    Format/Info                              : Audio Coding 3
    Mode extension                           : CM (complete main)
    Format settings, Endianness              : Big
    Codec ID                                 : ac-3
    Duration                                 : 1h 36mn
    Bit rate mode                            : Constant
    Bit rate                                 : 384 Kbps
    Channel(s)                               : 6 channels
    Channel positions                        : Front: L C R, Side: L R, LFE
    Sampling rate                            : 48.0 KHz
    Bit depth                                : 16 bits
    Compression mode                         : Lossy
    Stream size                              : 265 MiB (4%)
    Language                                 : Russian
    Encoded date                             : UTC 2014-12-26 08:33:45
    Tagged date                              : UTC 2014-12-26 08:34:11
    Audio #4
    ID                                       : 5
    Format                                   : AC-3
    Format/Info                              : Audio Coding 3
    Mode extension                           : CM (complete main)
    Format settings, Endianness              : Big
    Codec ID                                 : ac-3
    Duration                                 : 1h 36mn
    Bit rate mode                            : Constant
    Bit rate                                 : 640 Kbps
    Channel(s)                               : 6 channels
    Channel positions                        : Front: L C R, Side: L R, LFE
    Sampling rate                            : 48.0 KHz
    Bit depth                                : 16 bits
    Compression mode                         : Lossy
    Stream size                              : 442 MiB (7%)
    Language                                 : English
    Encoded date                             : UTC 2014-12-26 08:33:45
    Tagged date                              : UTC 2014-12-26 08:34:17
    Text #1
    ID                                       : 6
    Format                                   : Timed text
    Muxing mode                              : sbtl
    Codec ID                                 : tx3g
    Duration                                 : 1h 31mn
    Bit rate mode                            : Variable
    Bit rate                                 : 58 bps
    Stream size                              : 38.9 KiB (0%)
    Language                                 : English
    Encoded date                             : UTC 2014-12-26 08:33:45
    Tagged date                              : UTC 2014-12-26 08:33:47
    Text #2
    ID                                       : 7
    Format                                   : Apple text
    Codec ID                                 : text
    Duration                                 : 1h 36mn
    Bit rate mode                            : Constant
    Bit rate                                 : 0 bps
    Stream size                              : 312 Bytes (0%)
    Language                                 : English
    Encoded date                             : UTC 2014-12-26 08:34:53
    Tagged date                              : UTC 2014-12-26 08:34:53
    Menu
    00:00:00.000                             : 00:00:00.000
    00:08:59.247                             : 00:08:58.955
    00:16:34.618                             : 00:16:34.535
    00:23:41.794                             : 00:23:41.712
    00:31:54.745                             : 00:31:54.663
    00:40:54.659                             : 00:40:54.577
    00:51:02.266                             : 00:51:02.059
    00:59:28.229                             : 00:59:28.148
    01:05:38.933                             : 01:05:38.768
    01:14:22.581                             : 01:14:22.458
    01:22:12.592                             : 01:22:12.386
    01:28:36.350                             : 01:28:36.144

    x264 лог

    x264 [info]: frame I:1525  Avg QP:16.34  size:222669
    x264 [info]: frame P:37546 Avg QP:18.62  size: 75992
    x264 [info]: frame B:99959 Avg QP:20.17  size: 26054
    x264 [info]: consecutive B-frames:  3.9%  4.1% 14.0% 37.3% 40.6%
    x264 [info]: mb I  I16..4:  4.7% 88.9%  6.3%
    x264 [info]: mb P  I16..4:  1.8% 23.1%  0.7%  P16..4: 42.7% 17.0% 10.5%  0.1%  0.0%    skip: 4.1%
    x264 [info]: mb B  I16..4:  0.2%  2.3%  0.0%  B16..8: 50.7%  8.5%  1.9%  direct: 6.1%  skip:30.3%  L0:44.3% L1:50.7% BI: 5.1%
    x264 [info]: 8x8 transform intra:90.1% inter:70.1%
    x264 [info]: direct mvs  spatial:98.4% temporal:1.6%
    x264 [info]: coded y,uvDC,uvAC intra: 90.0% 87.6% 73.9% inter: 27.9% 33.3% 10.0%
    x264 [info]: i16 v,h,dc,p: 18% 14% 24% 44%
    x264 [info]: i8 v,h,dc,ddl,ddr,vr,hd,vl,hu:  8%  6% 17% 10% 13% 12% 11% 11% 12%
    x264 [info]: i4 v,h,dc,ddl,ddr,vr,hd,vl,hu:  9%  8%  6% 11% 15% 14% 14% 11% 13%
    x264 [info]: i8c dc,h,v,p: 65% 13% 12% 10%
    x264 [info]: Weighted P-Frames: Y:2.3% UV:0.8%
    x264 [info]: ref P L0: 49.0%  9.8% 27.5% 11.6%  2.1%  0.0%
    x264 [info]: ref B L0: 80.1% 15.5%  4.4%
    x264 [info]: ref B L1: 89.6% 10.4%
    x264 [info]: kb/s:7997.80

    Скриншоты

    -

    Релиз подготовлен для просмотра на Apple TV, iPad, iPhone, iPod Touch.
    Для просмотра данного релиза на компьютере с ОС Windows рекомендуется использовать VLC media player
    Скачать .torrent

    Скачать торрент-файл бесплатно и на максимальной скорости!

    Как скачивать? · Что такое торрент? · Рейтинг и ограничения

    !ВНИМАНИЕ!
    Сайт не распространяет и не хранит электронные версии произведений, а занимается лишь лишь предоставлением доступа к создаваемому пользователями каталогу ссылок на торрент-файлы, которые содержат только списки хеш-сумм, убедительная просьба с жалобами обращаться напрямую к пользователю. Файлы для обмена на трекере предоставлены пользователями сайта, и администрация не несёт ответственности за их содержание. Просьба не заливать файлы, защищенные авторскими правами, а также файлы нелегального содержания!


    _________________
    [Профиль] [ЛС]
    Показать сообщения:    
    Ответить на тему

    Текущее время: Сегодня, в 22:16

    Часовой пояс: GMT + 2



    Вы не можете начинать темы
    Вы не можете отвечать на сообщения
    Вы не можете редактировать свои сообщения
    Вы не можете удалять свои сообщения
    Вы не можете голосовать в опросах
    Вы не можете прикреплять файлы к сообщениям
    Вы не можете скачивать файлы