Register  ·  Log in
Forgot password?

  • Я, Эрл и умирающая девушка / Me and Earl and the Dying Girl (Альфонсо Гомез-Рейон / Alfonso Gomez-Rejon) [2015, США, драма, комедия, HDRip] DVO (Sunny Films)

    Reply to topic
    Author Message


    Post 03-Dec-2015 01:12



    Я, Эрл и умирающая девушка / Me and Earl and the Dying GirlСтрана: США
    Жанр: драма, комедия
    Год выпуска: 2015
    Продолжительность: 01:45:12
    Перевод: Любительский (двухголосый закадровый) Sunny Films
    Cубтитры: нет
    Режиссер: Альфонсо Гомез-Рейон / Alfonso Gomez-Rejon
    В ролях: Томас Манн, АрДжей Сайлер, Оливия Кук, Ник Офферман, Конни Бриттон, Молли Шеннон, Джон Бернтал, К.С. Хьюз, Мэтт Беннетт, Масам Холден
    Описание: История о подростке-режиссере, который пытается оказывать поддержку болеющей раком однокласснице.

    Качество видео: HDRip
    Формат видео: AVI
    Видео: 720x304 (2.37:1), 23.976 fps, XviD build 73 ~1795 kbps avg, 0.34 bit/pixel
    Аудио: 48 kHz, AC3 Dolby Digital, 2/0 (L,R) ch, ~192 kbps


    Формат : AVI
    Формат/Информация : Audio Video Interleave
    Размер файла : 1,47 Гбайт
    Продолжительность : 1 ч. 45 м.
    Общий поток : 1997 Кбит/сек
    Программа кодирования : VirtualDubMod | || (build 2550/release)
    Библиотека кодирования : VirtualDubMod build 2550/release
    Идентификатор : 0
    Формат : MPEG-4 Visual
    Профиль формата : Advanced Simple@L5
    Параметр BVOP формата : 1
    Параметр QPel формата : Нет
    Параметр GMC формата : Без точки перехода
    Параметр матрицы формата : Выборочная
    Идентификатор кодека : XVID
    Идентификатор кодека/Подсказка : XviD
    Продолжительность : 1 ч. 45 м.
    Битрейт : 1796 Кбит/сек
    Ширина : 720 пикселей
    Высота : 304 пикселя
    Соотношение сторон : 2,35:1
    Частота кадров : 23,976 кадра/сек
    Цветовое пространство : YUV
    Субдискретизация насыщенности : 4:2:0
    Битовая глубина : 8 бит
    Тип развёртки : Прогрессивная
    Метод сжатия : С потерями
    Бит/(Пиксели*Кадры) : 0.342
    Размер потока : 1,32 Гбайт (90%)
    Библиотека кодирования : XviD 73
    Идентификатор : 1
    Формат : AC-3
    Формат/Информация : Audio Coding 3
    Расширение режима : CM (complete main)
    Параметр Endianness формата : Big
    Идентификатор кодека : 2000
    Продолжительность : 1 ч. 45 м.
    Вид битрейта : Постоянный
    Битрейт : 192 Кбит/сек
    Каналы : 2 канала
    Расположение каналов : Front: L R
    Частота : 48,0 КГц
    Битовая глубина : 16 бит
    Метод сжатия : С потерями
    Размер потока : 144 Мбайт (10%)
    Выравнивание : Разделение по промежуткам
    Продолжительность промежутка : 42 мс. (1,00 видеокадр)
    Время предзагрузки промежутка : 500 мс.


    Download .torrent

    Download free and at maximum speed!

    How to Download? · What is a torrent? · Ratings and Limitations

    The site does not extend and does not store electronic(digital) versions of products, and only gives access to a reference catalogue created by users on torrent-files which contain only lists of the hash-sums, the earnest entreaty, with complaints(abuse) to access directly to the user. Files for an exchange on tracker are given by users of a site, and the administration does not bear the responsibility for their maintenance. The request to not fill in the files protected by copyrights, and also files of the illegal maintenance!

    [Profile] [PM]
    Display posts from previous:    
    Reply to topic

    The time now is: Today 18:25

    All times are GMT + 3 Hours

    You cannot post new topics in this forum
    You cannot reply to topics in this forum
    You cannot edit your posts in this forum
    You cannot delete your posts in this forum
    You cannot vote in polls in this forum
    You cannot attach files in this forum
    You cannot download files in this forum