BitTorrentTracker PerecTracker.org
BitTorrentTracker PerecTracker.org
    
Регистрация  ·  Вход
 
 · 
Забыли пароль?

  • Наследники / Descendants (Кенни Ортега / Kenny Ortega) [2015, США, Фэнтези, приключения, семейный, DVB] Dub (Невафильм) + Rus Hardsub (на песни)

    Ответить на тему
     
    Автор Сообщение

    rechyn

    Создавать темы 03-Дек-2015 00:12

           

    [Цитировать]

    Наследники / Descendants
    Страна: США
    Жанр: Фэнтези, приключения , семейный
    Год выпуска: 2015
    Продолжительность: 01:47:10
    Перевод: Профессиональный (дублированный) Невафильм
    Cубтитры: только на песни
    Оригинальная аудиодорожка: нет
    Режиссер: Кенни Ортега / Kenny Ortega
    В ролях: Дав Камерон, Кристин Ченоуэт, Сара Джеффри, Бу Бу Стюарт, Кэмерон Бойс, Киган Коннор Трейси,София Карсон, Кэти Нэджими, Стефани Беннетт, Венди Рэкуэл Робинсон, Мелани Пэкссон, Митчелл Хоуп
    Описание: Приключенческий телевизионный фильм о поколении подростков, потомков всеми любимых героев и самых известных злодеев. Действие разворачивается в современном идиллическом королевстве, где возлюбленный сын Короля и Королевы (Чудовища и Красавицы) восходит на трон. Своим первым указом он дает «амнистию» по которой всем наследникам известных злодеев, которые находятся в заточении на острове, дается второй шанс - Круэллы Де Виль, Малефисенты, Злой Королевы и Джафара, которые заключены вместе другими негодяями, злыми мачехами и сводными сестрами на всеми забытом острове. Всех отправляют в школу, вместе с детьми диснеевских героев – Крестной Феи, Спящей Красавицы, Рапунцель , Мулан и других позитивных героев. "Проблемные" подростки сталкиваются с дилеммой – стоит ли им пойти по стопам своих родителей и захватить власть или проявить добро и спасти королевство?
    Доп. информация: В этом фильме, который транслировался по каналу "Дисней" периодически всплывают баннеры с анонсами следующих передач и фильмов.
    Сэмпл: https://www.sendspace.com/file/apjtqu
    Качество видео: DVB
    Формат видео: MPG
    Видео: MPEG2, 720:576, (4:3), 2477 Кбит/сек, 25,000 кадров/сек, (0.239 bit/pixel)
    Аудио: MP2, 192 Кбит/сек, 48,0 КГц, 2 канала

    MediaInfo

    Общее
    Полное имя : Наследники.mpg
    Формат : MPEG-PS
    Размер файла : 2,04 Гбайт
    Продолжительность : 1 ч. 47 м.
    Режим общего битрейта : Переменный
    Общий поток : 2723 Кбит/сек
    Видео
    Идентификатор : 224 (0xE0)
    Формат : MPEG Video
    Версия формата : Version 2
    Профиль формата : Main@Main
    Параметр BVOP формата : Да
    Параметр матрицы формата : Выборочная
    Параметр GOP формата : Variable
    Структура изображения : Frame
    Продолжительность : 1 ч. 47 м.
    Вид битрейта : Переменный
    Битрейт : 2477 Кбит/сек
    Максимальный битрейт : 15,0 Мбит/сек
    Ширина : 720 пикселей
    Высота : 576 пикселей
    Соотношение сторон : 4:3
    Частота кадров : 25,000 кадров/сек
    Стандарт вещания : PAL
    Цветовое пространство : YUV
    Субдискретизация насыщенности : 4:2:0
    Битовая глубина : 8 бит
    Тип развёртки : Чересстрочная
    Порядок развёртки : Верхнее поле первое
    Метод сжатия : С потерями
    Бит/(Пиксели*Кадры) : 0.239
    Размер потока : 1,85 Гбайт (91%)
    Аудио
    Идентификатор : 192 (0xC0)
    Формат : MPEG Audio
    Версия формата : Version 1
    Профиль формата : Layer 2
    Продолжительность : 1 ч. 47 м.
    Вид битрейта : Постоянный
    Битрейт : 192 Кбит/сек
    Каналы : 2 канала
    Частота : 48,0 КГц
    Метод сжатия : С потерями
    Задержка видео : 17 мс.
    Размер потока : 147 Мбайт (7%)

    Скриншот c названием фильма

    Скриншоты

    Запись потока *.ts произведена тюнером цифрового телевидения. В связи с тем, что не все плееры воспроизводят поток *.ts (MPEG-TS) , в данном видеофайле мной был сделан ремукс потока *.ts (MPEG-TS) в *.mpg (MPEG-PS) программой VideoReDo
    Скачать .torrent

    Скачать торрент-файл бесплатно и на максимальной скорости!

    Как скачивать? · Что такое торрент? · Рейтинг и ограничения

    !ВНИМАНИЕ!
    Сайт не распространяет и не хранит электронные версии произведений, а занимается лишь лишь предоставлением доступа к создаваемому пользователями каталогу ссылок на торрент-файлы, которые содержат только списки хеш-сумм, убедительная просьба с жалобами обращаться напрямую к пользователю. Файлы для обмена на трекере предоставлены пользователями сайта, и администрация не несёт ответственности за их содержание. Просьба не заливать файлы, защищенные авторскими правами, а также файлы нелегального содержания!


    _________________
    [Профиль] [ЛС]
    Показать сообщения:    
    Ответить на тему

    Текущее время: Сегодня, в 08:50

    Часовой пояс: GMT + 2



    Вы не можете начинать темы
    Вы не можете отвечать на сообщения
    Вы не можете редактировать свои сообщения
    Вы не можете удалять свои сообщения
    Вы не можете голосовать в опросах
    Вы не можете прикреплять файлы к сообщениям
    Вы не можете скачивать файлы