Register  ·  Log in
Forgot password?

  • Прямиком из Комптона / Straight Outta Compton (Ф. Гэри Грей / F. Gary Gray) [2015, США, драма, биография, музыка, WEB-DLRip] VO + Sub Rus

    Reply to topic
    Author Message


    Post 03-Dec-2015 01:12



    Прямиком из Комптона / Straight Outta Compton
    Страна: США
    Жанр: драма, биография, музыка
    Год выпуска: 2015
    Продолжительность: 02:27:00
    Перевод: Одноголосый закадровый
    Cубтитры: русские
    Режиссер: Ф. Гэри Грей / F. Gary Gray
    В ролях: О’Ши Джексон мл., Кори Хоукинс, Джейсон Митчелл, Нил Браун мл., Элдис Ходж, Марлон Йэтс мл., Р. Маркус Тейлор, Карра Паттерсон, Александра Шипп, Пол Джаматти
    Описание: История группы N.W.A. из Комптона, штат Калифорния, которая в середине 1980-х произвела революцию в хип-хоп музыке.
    Доп. информация: Субтитры: Русские вшитые (на слова к рэпу)
    Качество видео: WEB-DLRip
    Формат видео: AVI
    Видео: кодек: XviD, размер кадра: 720x304, битрейт: 1229 kb/s
    Аудио: Язык: русский, аудиокодек: AC3, битрейт аудио: 192 kb/s


    Complete name : D:\Straight Outta Compton.avi
    Format : AVI
    Format/Info : Audio Video Interleave
    File size : 1.44 GiB
    Duration : 2h 24mn
    Overall bit rate : 1 430 Kbps
    Writing application : VirtualDubMod (build 2540/release)
    Writing library : VirtualDubMod build 2540/release
    ID : 0
    Format : MPEG-4 Visual
    Format profile : Advanced Simple@L5
    Format settings, BVOP : 2
    Format settings, QPel : No
    Format settings, GMC : No warppoints
    Format settings, Matrix : Default (MPEG)
    Muxing mode : Packed bitstream
    Codec ID : XVID
    Codec ID/Hint : XviD
    Duration : 2h 24mn
    Bit rate : 1 229 Kbps
    Width : 720 pixels
    Height : 304 pixels
    Display aspect ratio : 2.35:1
    Frame rate : 25.000 fps
    Color space : YUV
    Chroma subsampling : 4:2:0
    Bit depth : 8 bits
    Scan type : Progressive
    Compression mode : Lossy
    Bits/(Pixel*Frame) : 0.225
    Stream size : 1.24 GiB (86%)
    Writing library : XviD 64
    ID : 1
    Format : AC-3
    Format/Info : Audio Coding 3
    Mode extension : CM (complete main)
    Format settings, Endianness : Big
    Codec ID : 2000
    Duration : 2h 24mn
    Bit rate mode : Constant
    Bit rate : 192 Kbps
    Channel(s) : 2 channels
    Channel positions : Front: L R
    Sampling rate : 48.0 KHz
    Bit depth : 16 bits
    Compression mode : Lossy
    Stream size : 198 MiB (13%)
    Alignment : Split accross interleaves
    Interleave, duration : 40 ms (1.00 video frame)
    Interleave, preload duration : 500 ms

    Скриншот c названием фильма


    Download .torrent

    Download free and at maximum speed!

    How to Download? · What is a torrent? · Ratings and Limitations

    The site does not extend and does not store electronic(digital) versions of products, and only gives access to a reference catalogue created by users on torrent-files which contain only lists of the hash-sums, the earnest entreaty, with complaints(abuse) to access directly to the user. Files for an exchange on tracker are given by users of a site, and the administration does not bear the responsibility for their maintenance. The request to not fill in the files protected by copyrights, and also files of the illegal maintenance!

    [Profile] [PM]
    Display posts from previous:    
    Reply to topic

    The time now is: Today 14:29

    All times are GMT + 3 Hours

    You cannot post new topics in this forum
    You cannot reply to topics in this forum
    You cannot edit your posts in this forum
    You cannot delete your posts in this forum
    You cannot vote in polls in this forum
    You cannot attach files in this forum
    You cannot download files in this forum