Register  ·  Log in
Forgot password?

  • Потерявшиеся на солнце / Заблудшие души / Lost in the sun (Трей Нельсон / Trey Nelson) [2015, США, боевик, триллер, драма, WEB-DLRip] VO

    Reply to topic
    Author Message


    Post 03-Dec-2015 01:11



    -Потерявшиеся на солнце | Lost in the sun-Год выпуска: 2015
    Страна: США / Floren Shieh Productions
    Жанр: боевик, триллер, драма
    Продолжительность: ~ 01:35:41-Перевод: Любительский (одноголосый закадровый) | datynet-Режиссёр: Трей Нельсон / Trey Nelson-В ролях: Джош Дюамель, Джош Уиггинс, Линн Коллинс, Эмма Фурманн, Дебора Эбботт, Тиган Джей Бойд, Ребекка Чалив, Julie Cude-Eaton, Лоуренс Дин, Серина Дэннис-Описание: Фильм о Джоне, он мелкий мошенник. Он встречает подростка по имени Луи и отправляется с ним в дорожное приключение, где обучает его своим темным делам.--| Ссылка на предыдущие и альтернативные раздачи-Качество: WEB-DLRip
    Формат: AVI
    Видео: XviD, ~ 1669 kbps, 720x304 (16:9), 23.976 fps
    Аудио 1: MP3, 44.1 КГц, 2 ch, 256 kbps - Rus
    Субтитры: отсутствуют-Озвучивание: Любительское (одноголосое) [datynet], перевод [Куценко]


    Complete name                            : /media/sdb1/home/immortalseed/private/rtorrent/data/
    Format                                   : AVI
    Format/Info                              : Audio Video Interleave
    File size                                : 1.29 GiB
    Duration                                 : 1h 35mn
    Overall bit rate                         : 1 935 Kbps
    Writing library                          : VirtualDub build 35576/release
    ID                                       : 0
    Format                                   : MPEG-4 Visual
    Format profile                           : Advanced Simple@L5
    Format settings, BVOP                    : 2
    Format settings, QPel                    : No
    Format settings, GMC                     : No warppoints
    Format settings, Matrix                  : Default (H.263)
    Muxing mode                              : Packed bitstream
    Codec ID                                 : XVID
    Codec ID/Hint                            : XviD
    Duration                                 : 1h 35mn
    Bit rate                                 : 1 669 Kbps
    Width                                    : 720 pixels
    Height                                   : 304 pixels
    Display aspect ratio                     : 2.35:1
    Frame rate                               : 23.976 fps
    Color space                              : YUV
    Chroma subsampling                       : 4:2:0
    Bit depth                                : 8 bits
    Scan type                                : Progressive
    Compression mode                         : Lossy
    Bits/(Pixel*Frame)                       : 0.318
    Stream size                              : 1.12 GiB (86%)
    Writing library                          : XviD 66
    ID                                       : 1
    Format                                   : MPEG Audio
    Format version                           : Version 1
    Format profile                           : Layer 3
    Codec ID                                 : 55
    Codec ID/Hint                            : MP3
    Duration                                 : 1h 35mn
    Bit rate mode                            : Constant
    Bit rate                                 : 256 Kbps
    Channel(s)                               : 2 channels
    Sampling rate                            : 44.1 KHz
    Compression mode                         : Lossy
    Stream size                              : 175 MiB (13%)
    Alignment                                : Split accross interleaves
    Interleave, duration                     : 42 ms (1.00 video frame)
    Interleave, preload duration             : 500 ms


    Скриншот с названием фильма

    Download .torrent

    Download free and at maximum speed!

    How to Download? · What is a torrent? · Ratings and Limitations

    The site does not extend and does not store electronic(digital) versions of products, and only gives access to a reference catalogue created by users on torrent-files which contain only lists of the hash-sums, the earnest entreaty, with complaints(abuse) to access directly to the user. Files for an exchange on tracker are given by users of a site, and the administration does not bear the responsibility for their maintenance. The request to not fill in the files protected by copyrights, and also files of the illegal maintenance!

    [Profile] [PM]
    Display posts from previous:    
    Reply to topic

    The time now is: Today 07:47

    All times are GMT + 3 Hours

    You cannot post new topics in this forum
    You cannot reply to topics in this forum
    You cannot edit your posts in this forum
    You cannot delete your posts in this forum
    You cannot vote in polls in this forum
    You cannot attach files in this forum
    You cannot download files in this forum