Register  ·  Log in
Forgot password?

  • Немецкий страх / German Angst (Йорг Буттгерайт / Jörg Buttgereit, Михал Козаковски / Michal Kosakowski, Андреас Маршалл / Andreas Marschall) [2015, Германия, Ужасы, фэнтези, боевик, детектив, HDRip] DVO (2D)

    Reply to topic
    Author Message


    Post 03-Dec-2015 01:11



    Немецкий страх / German Angst
    «Three German tales of love, sex and death in Berlin»
    Страна: Германия
    Жанр: Ужасы, фэнтези, боевик, детектив
    Год выпуска: 2015
    Продолжительность: 01:51:18-Перевод: Любительский (двухголосый закадровый) 2D
    Cубтитры: нет-Режиссер: Йорг Буттгерайт / Jörg Buttgereit, Михал Козаковски / Michal Kosakowski, Андреас Маршалл / Andreas Marschall-В ролях: Лола Гэйв, Аксель Хольст, Михаэль Зеннер, Лила Лорэйн, Муки, Андреас Пейп, Маттан Харрис, Анника Штраус, Дэнис Лайонс, Мартина Шён-Радунски-Описание: В первом эпизоде фильма-антологии, носящем название «Final Girl», рассказывается о судьбе молодой женщины, живущей в центре Берлина. Во втором — »Alraune», повествуется о секс-клубе, в котором используют препарат с ужасными побочными эффектами. Третий эпизод, под названием «Make a Wish», расскажет о непростой судьбе глухих героев, попавшихся на глаза банде садистов.- -Качество видео: HDRip
    Формат видео: AVI
    Видео: XviD, 720x304, 24 fps, 1669 kbps, 0.31 bit/pixel
    Аудио: AC3 Dolby Digital, 48 kHz, 2 ch, 192 kbps-Релиз-группа:
    Перевод: DeadSno & Zonder
    Озвучка: 2D-

    Скриншот c названием фильма





    Complete name : Nemeckij.strah.2015.L2.HDRip.avi
    Format : AVI
    Format/Info : Audio Video Interleave
    File size : 1.45 GiB
    Duration : 1h 51mn
    Overall bit rate : 1 871 Kbps
    Writing application : VirtualDubMod | || (build 2550/release)
    Writing library : VirtualDubMod build 2550/release
    Video #0
    ID : 0
    Format : MPEG-4 Visual
    Format profile : Advanced Simple@L5
    Format settings, BVOP : 1
    Format settings, QPel : No
    Format settings, GMC : No warppoints
    Format settings, Matrix : Custom
    Codec ID : XVID
    Codec ID/Hint : XviD
    Duration : 1h 51mn
    Bit rate : 1 669 Kbps
    Width : 720 pixels
    Height : 304 pixels
    Display aspect ratio : 2.35:1
    Frame rate : 24.000 fps
    Color space : YUV
    Chroma subsampling : 4:2:0
    Bit depth : 8 bits
    Scan type : Progressive
    Compression mode : Lossy
    Bits/(Pixel*Frame) : 0.318
    Stream size : 1.30 GiB (89%)
    Writing library : XviD 73
    Audio #1
    ID : 1
    Format : AC-3
    Format/Info : Audio Coding 3
    Mode extension : CM (complete main)
    Format settings, Endianness : Big
    Codec ID : 2000
    Duration : 1h 51mn
    Bit rate mode : Constant
    Bit rate : 192 Kbps
    Channel(s) : 2 channels
    Channel positions : Front: L R
    Sampling rate : 48.0 KHz
    Bit depth : 16 bits
    Compression mode : Lossy
    Stream size : 153 MiB (10%)
    Alignment : Split accross interleaves
    Interleave, duration : 42 ms (1.00 video frame)
    Interleave, preload duration : 500 ms
    Download .torrent

    Download free and at maximum speed!

    How to Download? · What is a torrent? · Ratings and Limitations

    The site does not extend and does not store electronic(digital) versions of products, and only gives access to a reference catalogue created by users on torrent-files which contain only lists of the hash-sums, the earnest entreaty, with complaints(abuse) to access directly to the user. Files for an exchange on tracker are given by users of a site, and the administration does not bear the responsibility for their maintenance. The request to not fill in the files protected by copyrights, and also files of the illegal maintenance!

    [Profile] [PM]
    Display posts from previous:    
    Reply to topic

    The time now is: Today 15:06

    All times are GMT + 3 Hours

    You cannot post new topics in this forum
    You cannot reply to topics in this forum
    You cannot edit your posts in this forum
    You cannot delete your posts in this forum
    You cannot vote in polls in this forum
    You cannot attach files in this forum
    You cannot download files in this forum