BitTorrentTracker PerecTracker.org
BitTorrentTracker PerecTracker.org
    
Регистрация  ·  Вход
 
 · 
Забыли пароль?

  • 33 / The 33 / Los 33 (Патрисия Ригген / Patricia Riggen) [2015, Чили, США, Драма, катастрофа, WEB-DLRip] DVO (Sunshine Studio)

    Ответить на тему
     
    Автор Сообщение

    rechyn

    Создавать темы 03-Дек-2015 00:11

           

    [Цитировать]

    33 / The 33 / Los 33
    Страна: Чили, США
    Жанр: Драма, катастрофа
    Год выпуска: 2015
    Продолжительность: 02:06:57
    Перевод: Любительский (двухголосый закадровый) Sunshine Studio
    Cубтитры: отсутствуют
    Оригинальная аудиодорожка: нет
    Режиссёр: Патрисия Ригген / Patricia Riggen
    Актёры: Антонио Бандерас, Родригу Сантору, Жюльет Бинош, Джеймс Бролин, Лу Даймонд Филлипс, Марио Касас, Адриана Барраца, Кейт дель Кастилло, Коте Де Пабло, Боб Гантон, Габриэль Бирн, Наоми Скотт, Джейкоб Варгас, Оскар Нуньес, Хуан Пабло Раба, Паулина Гарсия, Федерико Луппи, Тенок Уэрта, и др.
    Краткая аннотация: Фильм основан на реальных событиях.
    Рассказ о тридцати трёх чилийских шахтёрах, которые в 2010 году на 69 дней оказались в ловушке под землёй...

    Качество видео: WEB-DLRip
    Формат видео: AVI
    Video: 720x304 (2.37:1), 23.976 fps, XviD build 73 ~1438 kbps avg, 0.27 bit/pixel
    Audio: 48 kHz, AC3 Dolby Digital, 2/0 (L,R) ch, ~192 kbps

    AviInfo

    File: The_33_2014_WEB-DLRip_[perectracker.org].aviFilesize: 1489.14 Mb ( 1 561 479 168 bytes )Play length: 02:06:57.372 (182634 frames)Subtitles: Not PresentVideo: 720x304 (2.37:1), 23.976 fps, XviD build 73 ~1438 kbps avg, 0.27 bit/pixelAudio: 48 kHz, AC3 Dolby Digital, 2/0 (L,R) ch, ~192 kbps

    MediaInfo

    ОбщееПолное имя : Р:\The_33_2014_WEB-DLRip_[perectracker.org].aviФормат : AVIФормат/Информация : Audio Video InterleaveРазмер файла : 1,45 ГбайтПродолжительность : 2 ч. 6 м.Общий поток : 1640 Кбит/секПрограмма кодирования : VirtualDubModRus 1.5.10.2 (build 2542/release)Библиотека кодирования : VirtualDubMod build 2542/release
    ВидеоИдентификатор : 0Формат : MPEG-4 VisualПрофиль формата : Advanced Simple@L5Параметр BVOP формата : 1Параметр QPel формата : НетПараметр GMC формата : Без точки переходаПараметр матрицы формата : ВыборочнаяИдентификатор кодека : DX50Идентификатор кодека/Подсказка : DivX 5Продолжительность : 2 ч. 6 м.Битрейт : 1438 Кбит/секШирина : 720 пикселейВысота : 304 пикселяСоотношение сторон : 2,35:1Частота кадров : 23,976 кадра/секЦветовое пространство : YUVСубдискретизация насыщенности : 4:2:0Битовая глубина : 8 битТип развёртки : ПрогрессивнаяМетод сжатия : С потерямиБит/(Пиксели*Кадры) : 0.274Размер потока : 1,28 Гбайт (88%)Библиотека кодирования : XviD 73
    АудиоИдентификатор : 1Формат : AC-3Формат/Информация : Audio Coding 3Расширение режима : CM (complete main)Параметр Endianness формата : BigИдентификатор кодека : 2000Продолжительность : 2 ч. 6 м.Вид битрейта : ПостоянныйБитрейт : 192 Кбит/секКаналы : 2 каналаРасположение каналов : Front: L RЧастота : 48,0 КГцБитовая глубина : 16 битМетод сжатия : С потерямиРазмер потока : 174 Мбайт (12%)Выравнивание : Разделение по промежуткамПродолжительность промежутка : 42 мс. (1,00 видеокадр)Время предзагрузки промежутка : 500 мс.

    Скриншот c названием фильма

    Скриншоты

    Время раздачи - по возможности.
    Скачать .torrent

    Скачать торрент-файл бесплатно и на максимальной скорости!

    Как скачивать? · Что такое торрент? · Рейтинг и ограничения

    !ВНИМАНИЕ!
    Сайт не распространяет и не хранит электронные версии произведений, а занимается лишь лишь предоставлением доступа к создаваемому пользователями каталогу ссылок на торрент-файлы, которые содержат только списки хеш-сумм, убедительная просьба с жалобами обращаться напрямую к пользователю. Файлы для обмена на трекере предоставлены пользователями сайта, и администрация не несёт ответственности за их содержание. Просьба не заливать файлы, защищенные авторскими правами, а также файлы нелегального содержания!


    _________________
    [Профиль] [ЛС]
    Показать сообщения:    
    Ответить на тему

    Текущее время: Сегодня, в 18:55

    Часовой пояс: GMT + 2



    Вы не можете начинать темы
    Вы не можете отвечать на сообщения
    Вы не можете редактировать свои сообщения
    Вы не можете удалять свои сообщения
    Вы не можете голосовать в опросах
    Вы не можете прикреплять файлы к сообщениям
    Вы не можете скачивать файлы