Register  ·  Log in
Forgot password?

  • Виктория / Victoria (Себастьян Шиппер / Sebastian Schipper) [2015, Германия, триллер, драма, криминал, HDRip] MVO

    Reply to topic
    Author Message


    Post 03-Dec-2015 01:11



    Виктория / Victoria
    Страна: Германия
    Жанр: триллер, драма, криминал
    Год выпуска: 2015
    Продолжительность: 02:18:38
    Перевод: Профессиональный (многоголосый закадровый)
    Cубтитры: нет
    Оригинальная аудиодорожка: нет-Режиссер: Себастьян Шиппер / Sebastian Schipper-В ролях: Лайа Коста, Фредерик Лау, Франц Роговский, Бурак Йийит, Макс Мауфф, Андре Хеннике, Анна-Лена Кленке, Ганс-Ульрих Локс, Айке Фредерик Шульц, Адольфо Ассор-Описание: Виктория — испанская девушка, которая живет в Берлине. Однажды на выходе из клуба она знакомится с четырьмя парнями — Зонне, Боксером, Блинкером и Фусом. Ребята обещают ей показать «настоящий Берлин».
    Но прогулкой по ночному городу дело не ограничивается. Оказывается, парням нужно разобраться со старым долгом, а поскольку один из них слишком пьян, они просят Викторию побыть водителем.-Качество видео: HDRip | Автор рипа Scarabey
    Формат видео: AVI
    Видео: 720x304 (2.37:1), 23.976 fps, XviD build 73 ~1295 kbps avg, 0.25 bit/pixel
    Аудио: 48 kHz, AC3 Dolby Digital, 2/0 (L,R) ch, ~192.00 kbps avg-Скачать сэмпл-


    Format                      : AVI
    Format/Info                 : Audio Video Interleave
    File size                   : 1.45 GiB
    Duration                    : 2h 18mn
    Overall bit rate            : 1 497 Kbps
    Writing application         : VirtualDubMod (build 2540/release)
    Writing library             : VirtualDubMod build 2540/release
    ID                          : 0
    Format                      : MPEG-4 Visual
    Format profile              : Advanced Simple@L5
    Format settings, BVOP       : 1
    Format settings, QPel       : No
    Format settings, GMC        : No warppoints
    Format settings, Matrix     : Custom
    Codec ID                    : XVID
    Codec ID/Hint               : XviD
    Duration                    : 2h 18mn
    Bit rate                    : 1 296 Kbps
    Width                       : 720 pixels
    Height                      : 304 pixels
    Display aspect ratio        : 2.35:1
    Frame rate                  : 23.976 fps
    Color space                 : YUV
    Chroma subsampling          : 4:2:0
    Bit depth                   : 8 bits
    Scan type                   : Progressive
    Compression mode            : Lossy
    Bits/(Pixel*Frame)          : 0.247
    Stream size                 : 1.25 GiB (87%)
    Writing library             : XviD 73
    ID                          : 1
    Format                      : AC-3
    Format/Info                 : Audio Coding 3
    Mode extension              : CM (complete main)
    Format settings, Endianness : Big
    Codec ID                    : 2000
    Duration                    : 2h 18mn
    Bit rate mode               : Constant
    Bit rate                    : 192 Kbps
    Channel(s)                  : 2 channels
    Channel positions           : Front: L R
    Sampling rate               : 48.0 KHz
    Compression mode            : Lossy
    Stream size                 : 190 MiB (13%)
    Alignment                   : Aligned on interleaves
    Interleave, duration        : 42 ms (1.00 video frame)
    Interleave, preload duratio : 512 ms


    Download .torrent

    Download free and at maximum speed!

    How to Download? · What is a torrent? · Ratings and Limitations

    The site does not extend and does not store electronic(digital) versions of products, and only gives access to a reference catalogue created by users on torrent-files which contain only lists of the hash-sums, the earnest entreaty, with complaints(abuse) to access directly to the user. Files for an exchange on tracker are given by users of a site, and the administration does not bear the responsibility for their maintenance. The request to not fill in the files protected by copyrights, and also files of the illegal maintenance!

    [Profile] [PM]
    Display posts from previous:    
    Reply to topic

    The time now is: Today 20:29

    All times are GMT + 3 Hours

    You cannot post new topics in this forum
    You cannot reply to topics in this forum
    You cannot edit your posts in this forum
    You cannot delete your posts in this forum
    You cannot vote in polls in this forum
    You cannot attach files in this forum
    You cannot download files in this forum