BitTorrentTracker PerecTracker.org
BitTorrentTracker PerecTracker.org
    
Регистрация  ·  Вход
 
 · 
Забыли пароль?

  • 90 минут на небесах / 90 Minutes in Heaven (Майкл Полиш / Michael Polish) [2015, США, драма, биография, HDRip] + Sub Rus

    Ответить на тему
     
    Автор Сообщение

    rechyn

    Создавать темы 03-Дек-2015 00:11

           

    [Цитировать]

    90 минут на небесах / 90 Minutes in Heaven
    Страна: США
    Жанр: драма, биография
    Год выпуска: 2015
    Продолжительность: 02:01:55
    Перевод: Отсутствует
    Cубтитры: русские
    Оригинальная аудиодорожка: английский
    Режиссер: Майкл Полиш / Michael Polish
    В ролях: Кейт Босворт, Хейден Кристенсен, Хадсон Мик, Бобби Батсон, Элизабет Хантер, Дэвид Клайд Карр, Катрин Карлен, Дуайт Йоакам, Майкл В. Смит, Джианна Саймон
    Описание: Жизнь пастора Дона Пайпера, любящего супруга и отца, — образец домашнего уюта и счастья. Непрошеные перемены наступают, когда Дон попадает в автомобильную аварию. Бессильные спасатели лишь констатируют факт смерти и накрывают тело брезентом. Однако спустя полтора часа бригада реанимации возвращает Дона к жизни.
    Все это время душа Дона обретала покой, любовь и радость, каких никогда не знала прежде. Благодаря клинической смерти Дон приобретает мистический опыт, который заставляет его по-новому взглянуть на собственную жизнь. Но когда он возвращается в этот мир, дают о себе знать и печальные последствия аварии: Дон прикован к постели, и медицина не способна поставить его на ноги. Но после пережитого чуда Дон не намерен сдаваться. Заручившись поддержкой своей жены, он намерен преодолеть самые тяжелые испытания.
    Доп. информация:


    Сэмпл: https://yadi.sk/i/FMJ9jv6IkcWwS
    Качество видео: HDRip
    Формат видео: AVI
    Видео: XVID 720x304, 2,35:1, 23,976 fps, 1246 kbps
    Аудио: AC3 Dolby Digital, 48 kHz, 384 kbps, 3/2 (L,C,R,l,r) + LFE ch, Original
    Формат субтитров: softsub (SRT)

    MediaInfo

    Полное имя : C:\90.Minutes.in.Heaven.2015.HDRip.XviD.AC3-EVO\90.Minutes.in.Heaven.2015.HDRip.XviD.AC3-EVO.avi
    Формат : AVI
    Формат/Информация : Audio Video Interleave
    Размер файла : 1,40 Гбайт
    Продолжительность : 2 ч. 1 м.
    Общий поток : 1640 Кбит/сек
    Библиотека кодирования : VirtualDub build 32593/release
    Видео
    Идентификатор : 0
    Формат : MPEG-4 Visual
    Профиль формата : Advanced Simple@L5
    Параметр BVOP формата : 2
    Параметр QPel формата : Нет
    Параметр GMC формата : Без точки перехода
    Параметр матрицы формата : Default (H.263)
    Режим смешивания : Сжатый битовый поток
    Идентификатор кодека : XVID
    Идентификатор кодека/Подсказка : XviD
    Продолжительность : 2 ч. 1 м.
    Битрейт : 1246 Кбит/сек
    Ширина : 720 пикселей
    Высота : 304 пикселя
    Соотношение сторон : 2,35:1
    Частота кадров : 23,976 кадра/сек
    Цветовое пространство : YUV
    Субдискретизация насыщенности : 4:2:0
    Битовая глубина : 8 бит
    Тип развёртки : Прогрессивная
    Метод сжатия : С потерями
    Бит/(Пиксели*Кадры) : 0.237
    Размер потока : 1,06 Гбайт (76%)
    Библиотека кодирования : XviD 66
    Аудио
    Идентификатор : 1
    Формат : AC-3
    Формат/Информация : Audio Coding 3
    Расширение режима : CM (complete main)
    Параметр Endianness формата : Big
    Идентификатор кодека : 2000
    Продолжительность : 2 ч. 1 м.
    Вид битрейта : Постоянный
    Битрейт : 384 Кбит/сек
    Каналы : 6 каналов
    Расположение каналов : Front: L C R, Side: L R, LFE
    Частота : 48,0 КГц
    Битовая глубина : 16 бит
    Метод сжатия : С потерями
    Размер потока : 335 Мбайт (23%)
    Выравнивание : Соединение по промежуткам
    Продолжительность промежутка : 42 мс. (1,00 видеокадр)
    Время предзагрузки промежутка : 512 мс.

    Скриншот c названием фильма

    Скриншоты

    первые 30-строк субтитров

    0
    00:01:53,520 --> 00:01:58,011
    90 минут на небесах
    Основано на реальных событиях
    1
    00:03:56,720 --> 00:04:02,011
    <i> Я умер 18 января,1989 года. </i>
    2
    00:04:03,760 --> 00:04:06,331
    <i> Я был отцом троих детей. </i>
    3
    00:04:06,400 --> 00:04:09,165
    <i> Мужем замечательной жены. </i>
    4
    00:04:10,600 --> 00:04:12,170
    <i> Мне пророчили великое будущее. </i>
    5
    00:04:13,320 --> 00:04:15,322
    <i> Мне было всего лишь 38 лет. </i>
    05
    00:04:23,320 --> 00:04:28,322
    утешайтесь надеждою; в скорби будьте терпеливы, в молитве постоянны;
    Послание к Римлянам 12:12
    06
    00:04:29,720 --> 00:04:33,322
    2 года раннее
    6
    00:04:41,240 --> 00:04:43,049
    Ты собираешься ?
    7
    00:04:43,160 --> 00:04:44,889
    О дорогой, ты знаешь.
    8
    00:04:47,360 --> 00:04:48,725
    Но я всё равно буду тебя докучать.
    9
    00:04:49,920 --> 00:04:52,241
    Я ужасно себя чувствую. У меня шесть новых учеников.
    10
    00:04:52,320 --> 00:04:53,890
    Я подменяю их учителя.
    11
    00:04:56,040 --> 00:04:58,805
    Неужели я не могу убедить мою жену.
    12
    00:04:58,880 --> 00:05:01,326
    Провести прекрасные выходные вместе с мужем.
    13
    00:05:06,480 --> 00:05:10,246
    Выспимся вместе. Закажим еду в номер.
    14
    00:05:10,360 --> 00:05:12,408
    В номер ?
    15
    00:05:12,480 --> 00:05:14,244
    Там, вероятно, нет обслуживание номеров, но мечтать не вредно.
    16
    00:05:15,760 --> 00:05:18,809
    Мы могли бы купить себе гамбургеры.
    17
    00:05:18,920 --> 00:05:20,490
    Сделать себе клубничные молочные коктели.
    18
    00:05:20,640 --> 00:05:21,641
    Ох ...
    19
    00:05:21,720 --> 00:05:24,087
    Ты меня почти уговорил.
    20
    00:05:24,160 --> 00:05:27,562
    Будет уютно. И я поставлю "Love Me Tender".
    21
    00:05:28,560 --> 00:05:31,006
    <i> Love Me Tender(Люби меня нежно). </i>
    22
    00:05:31,080 --> 00:05:33,128
    <i> Love me True(Люби меня честно) </i>
    23
    00:05:33,840 --> 00:05:34,966
    Привет, Папа.
    24
    00:05:35,080 --> 00:05:36,081
    Ой ...
    25
    00:05:37,240 --> 00:05:38,810
    <i> Будто мы в тюрьме "рок" </i>
    26
    00:05:39,920 --> 00:05:41,570
    Как поживаешь ? Выспался ?
    27
    00:05:41,640 --> 00:05:42,721
    Ага. Да. Да?
    28
    00:05:42,800 --> 00:05:44,165
    Вроде стал тяжелее ?
    Хм, Да.
    29
    00:05:44,280 --> 00:05:46,009
    Опять вырос ? Хм, нет.
    30
    00:05:46,080 --> 00:05:47,491
    Поцелуй на прощание ?
    Скачать .torrent

    Скачать торрент-файл бесплатно и на максимальной скорости!

    Как скачивать? · Что такое торрент? · Рейтинг и ограничения

    !ВНИМАНИЕ!
    Сайт не распространяет и не хранит электронные версии произведений, а занимается лишь лишь предоставлением доступа к создаваемому пользователями каталогу ссылок на торрент-файлы, которые содержат только списки хеш-сумм, убедительная просьба с жалобами обращаться напрямую к пользователю. Файлы для обмена на трекере предоставлены пользователями сайта, и администрация не несёт ответственности за их содержание. Просьба не заливать файлы, защищенные авторскими правами, а также файлы нелегального содержания!


    _________________
    [Профиль] [ЛС]
    Показать сообщения:    
    Ответить на тему

    Текущее время: Сегодня, в 00:21

    Часовой пояс: GMT + 2



    Вы не можете начинать темы
    Вы не можете отвечать на сообщения
    Вы не можете редактировать свои сообщения
    Вы не можете удалять свои сообщения
    Вы не можете голосовать в опросах
    Вы не можете прикреплять файлы к сообщениям
    Вы не можете скачивать файлы