BitTorrentTracker PerecTracker.org
BitTorrentTracker PerecTracker.org
    
Регистрация  ·  Вход
 
 · 
Забыли пароль?

  • Мёртвое поле / The Killing Field (Samantha Lang) [2014, Австралия, Детектив, триллер, DVDRip] [Австралия] DVO (Kiitos)

    Ответить на тему
     
    Автор Сообщение

    Light

    Создавать темы 03-Дек-2015 00:11

           

    [Цитировать]

    Мёртвое поле / The Killing Field
    Страна: Австралия
    Жанр: Детектив, триллер
    Год выпуска: 2014
    Продолжительность: 90 мин
    Перевод: Любительский (двухголосый закадровый) Kiitos
    Перевод: izolenta, Alex_ander, victoria_vn
    Озвучивание: kiitos, Strelka75
    Cведение: kiitos
    Cубтитры: нет
    Оригинальная аудиодорожка: нет
    Режиссер: Samantha Lang
    В ролях: Rebecca Gibney - Ребекка Гибни, Liam McIntyre - Лиам Макинтайр, Peter O'Brien - Питер О'Брайан, Chloe Boreham - Хлоя Борхэм
    Описание: Крупномасштабная операция объявлена полицией и жителями небольшого провинциального городка Мингара, когда без вести пропала пятнадцатилетняя девушка - Ребекка Райан. В процессе прочёсывания территории найдены пять трупов юных девушек с перерезанными ахилловыми сухожилиями, закопанных в поле в неглубоких могилах. Однако, тела Ребекки среди них нет. Дальнейший поиск оказывается непосильным для местных властей и они обращаются в Сидней за поддержкой.
    Детектив-сержант Ева Винтер возглавляет оперативную группу, прибывающую в провинцию для расследования серии убийств. Дело предстоит нелёгкое, поскольку Мингара - маленький городок, где все жители знают друг друга, и поэтому хранящий множество тайн, где число подозреваемых растёт не по дням, а по часам, где у многих собственные "скелеты в шкафу", и где разыгрываются настоящие человеческие трагедии, вызывающие сочувствие, жалость и недоумение.
    Качество видео: DVDRip
    Формат видео: AVI
    Видео: XviD, 720x400 (16:9) 25fps 884kbps
    Аудио: RUS:MP3, 48000Hz stereo 192kbps
    Ссылка на предыдущие и альтернативные раздачи
    Сэмпл

    MediaInfo

    General
    Format : AVI
    Format/Info : Audio Video Interleave
    File size : 704 MiB
    Duration : 1h 30mn
    Overall bit rate : 1 086 Kbps
    Writing application : VirtualDubMod 1.5.10.2 (build 2540/release)
    Writing library : VirtualDubMod build 2540/release
    Video
    ID : 0
    Format : MPEG-4 Visual
    Format profile : Advanced Simple@L5
    Format settings, BVOP : 2
    Format settings, QPel : No
    Format settings, GMC : No warppoints
    Format settings, Matrix : Default (MPEG)
    Codec ID : XVID
    Codec ID/Hint : XviD
    Duration : 1h 30mn
    Bit rate : 884 Kbps
    Width : 720 pixels
    Height : 400 pixels
    Display aspect ratio : 16:9
    Frame rate : 25.000 fps
    Color space : YUV
    Chroma subsampling : 4:2:0
    Bit depth : 8 bits
    Scan type : Progressive
    Compression mode : Lossy
    Bits/(Pixel*Frame) : 0.123
    Stream size : 573 MiB (81%)
    Writing library : XviD 73
    Audio
    ID : 1
    Format : MPEG Audio
    Format version : Version 1
    Format profile : Layer 3
    Mode : Joint stereo
    Codec ID : 55
    Codec ID/Hint : MP3
    Duration : 1h 30mn
    Bit rate mode : Constant
    Bit rate : 192 Kbps
    Channel(s) : 2 channels
    Sampling rate : 48.0 KHz
    Compression mode : Lossy
    Stream size : 125 MiB (18%)
    Alignment : Aligned on interleaves
    Interleave, duration : 40 ms (1.00 video frame)
    Interleave, preload duration : 504 ms

    Скриншоты

    Скачать .torrent

    Скачать торрент-файл бесплатно и на максимальной скорости!

    Как скачивать? · Что такое торрент? · Рейтинг и ограничения

    !ВНИМАНИЕ!
    Сайт не распространяет и не хранит электронные версии произведений, а занимается лишь лишь предоставлением доступа к создаваемому пользователями каталогу ссылок на торрент-файлы, которые содержат только списки хеш-сумм, убедительная просьба с жалобами обращаться напрямую к пользователю. Файлы для обмена на трекере предоставлены пользователями сайта, и администрация не несёт ответственности за их содержание. Просьба не заливать файлы, защищенные авторскими правами, а также файлы нелегального содержания!


    _________________
    [Профиль] [ЛС]
    Показать сообщения:    
    Ответить на тему

    Текущее время: Сегодня, в 20:08

    Часовой пояс: GMT + 2



    Вы не можете начинать темы
    Вы не можете отвечать на сообщения
    Вы не можете редактировать свои сообщения
    Вы не можете удалять свои сообщения
    Вы не можете голосовать в опросах
    Вы не можете прикреплять файлы к сообщениям
    Вы не можете скачивать файлы