BitTorrentTracker PerecTracker.org
BitTorrentTracker PerecTracker.org
    
Регистрация  ·  Вход
 
 · 
Забыли пароль?

  • Сахарные поцелуи / Besos de Azúcar (Карлос Куарон / Carlos Cuarón) [2013, Мексика, драма, DVDRip-AVC] VO + Sub Rus + Original Spa

    Ответить на тему
     
    Автор Сообщение

    Light

    Создавать темы 03-Дек-2015 00:11

           

    [Цитировать]

    Сахарные поцелуи / Besos de Azúcar
    Страна: Мексика
    Жанр: драма
    Год выпуска: 2013
    Продолжительность: 01:25:16
    Перевод: Одноголосый закадровый
    Cубтитры: русские
    Оригинальная аудиодорожка: испанский
    Режиссер: Карлос Куарон / Carlos Cuarón
    В ролях: César Kancino, Эктор Хименес / Héctor Jiménez, Вероника Фалькон / Veronica Falcón, Палома Арредондо / Paloma Arredondo, Кристиан Феррер / Kristian Ferrer, Энрике Арреола / Enrique Arreola, Даниэла Арсе / Daniela Arce, Бернардо Терронс / Bernardo Terrones
    Описание: Мальчик влюбляется в девочку, чьи родители - бандиты. Сможет ли первая любовь противостоять жестокости и насилию окружающего мира?
    ВНИМАНИЕ!: Фильм содержит много ненормативной лексики!
    Сэмпл: http://multi-up.com/1075502
    Качество видео: DVDRip-AVC
    Формат видео: MKV
    Видео: AVC at 1848 Кбит/сек : 720 x 368 (2.291)
    Аудио 1: AC-3 at 224 Кбит/сек : 2 канала, 48,0 КГц Language : ru
    Аудио 2: AC-3 at 448 Кбит/сек : 6 каналов, 48,0 КГц Language : es
    Формат субтитров: softsub (SRT)
    Доп. информация о субтитрах: Русские внешние (jojag)

    MediaInfo

    Общее
    Уникальный идентификатор : 207838245817284847619552021695004727388 (0x9C5C30ABC2706C199F1ACEBA253CD85C)
    Полное имя : F:\С моей озвучкой\Сахарные поцелуи\Besos de Azúcar.mkv
    Формат : Matroska
    Версия формата : Version 4 / Version 2
    Размер файла : 1,49 Гбайт
    Продолжительность : 1 ч. 25 м.
    Общий поток : 2503 Кбит/сек
    Дата кодирования : UTC 2015-11-15 19:38:32
    Программа кодирования : mkvmerge v7.9.0 ('Birds') 64bit
    Библиотека кодирования : libebml v1.3.1 + libmatroska v1.4.2
    DURATION : 01:25:13.824000000
    NUMBER_OF_FRAMES : 159807
    NUMBER_OF_BYTES : 143187072
    _STATISTICS_WRITING_APP : mkvmerge v7.9.0 ('Birds') 64bit
    _STATISTICS_WRITING_DATE_UTC : 2015-11-15 19:38:32
    _STATISTICS_TAGS : BPS DURATION NUMBER_OF_FRAMES NUMBER_OF_BYTES
    Видео
    Идентификатор : 1
    Формат : AVC
    Формат/Информация : Advanced Video Codec
    Профиль формата : High@L3.0
    Параметр CABAC формата : Да
    Параметр ReFrames формата : 4 кадра
    Идентификатор кодека : V_MPEG4/ISO/AVC
    Битрейт : 1848 Кбит/сек
    Ширина : 720 пикселей
    Высота : 368 пикселей
    Соотношение сторон : 2,25:1
    Соотношение сторон в оригинале : 2,25:1
    Режим частоты кадров : Переменный
    Цветовое пространство : YUV
    Субдискретизация насыщенности : 4:2:0
    Битовая глубина : 8 бит
    Тип развёртки : Прогрессивная
    Библиотека кодирования : x264 core 112
    Настройки программы : cabac=1 / ref=3 / deblock=1:0:0 / analyse=0x3:0x113 / me=hex / subme=7 / psy=1 / psy_rd=1.00:0.00 / mixed_ref=1 / me_range=16 / chroma_me=1 / trellis=1 / 8x8dct=1 / cqm=0 / deadzone=21,11 / fast_pskip=1 / chroma_qp_offset=-2 / threads=6 / sliced_threads=0 / nr=0 / decimate=1 / interlaced=0 / constrained_intra=0 / bframes=3 / b_pyramid=2 / b_adapt=2 / b_bias=0 / direct=1 / weightb=1 / open_gop=0 / weightp=2 / keyint=240 / keyint_min=23 / scenecut=40 / intra_refresh=0 / rc_lookahead=50 / rc=abr / mbtree=1 / bitrate=1848 / ratetol=1.0 / qcomp=0.60 / qpmin=3 / qpmax=51 / qpstep=4 / ip_ratio=1.40 / aq=1:1.00
    Язык : English
    Default : Да
    Forced : Нет
    Основные цвета : BT.601 NTSC
    Характеристики трансфера : BT.709
    Коэффициенты матрицы : BT.601
    Аудио #1
    Идентификатор : 2
    Формат : AC-3
    Формат/Информация : Audio Coding 3
    Расширение режима : CM (complete main)
    Параметр Endianness формата : Big
    Идентификатор кодека : A_AC3
    Продолжительность : 1 ч. 25 м.
    Вид битрейта : Постоянный
    Битрейт : 224 Кбит/сек
    Каналы : 2 канала
    Расположение каналов : Front: L R
    Частота : 48,0 КГц
    Битовая глубина : 16 бит
    Метод сжатия : С потерями
    Размер потока : 137 Мбайт (9%)
    Язык : Russian
    Default : Да
    Forced : Нет
    Аудио #2
    Идентификатор : 3
    Формат : AC-3
    Формат/Информация : Audio Coding 3
    Расширение режима : CM (complete main)
    Параметр Endianness формата : Big
    Идентификатор кодека : A_AC3
    Продолжительность : 1 ч. 25 м.
    Вид битрейта : Постоянный
    Битрейт : 448 Кбит/сек
    Каналы : 6 каналов
    Расположение каналов : Front: L C R, Side: L R, LFE
    Частота : 48,0 КГц
    Битовая глубина : 16 бит
    Метод сжатия : С потерями
    Размер потока : 273 Мбайт (18%)
    Язык : Spanish
    Default : Нет
    Forced : Нет

    Скриншоты

    Скачать .torrent

    Скачать торрент-файл бесплатно и на максимальной скорости!

    Как скачивать? · Что такое торрент? · Рейтинг и ограничения

    !ВНИМАНИЕ!
    Сайт не распространяет и не хранит электронные версии произведений, а занимается лишь лишь предоставлением доступа к создаваемому пользователями каталогу ссылок на торрент-файлы, которые содержат только списки хеш-сумм, убедительная просьба с жалобами обращаться напрямую к пользователю. Файлы для обмена на трекере предоставлены пользователями сайта, и администрация не несёт ответственности за их содержание. Просьба не заливать файлы, защищенные авторскими правами, а также файлы нелегального содержания!


    _________________
    [Профиль] [ЛС]
    Показать сообщения:    
    Ответить на тему

    Текущее время: Сегодня, в 11:51

    Часовой пояс: GMT + 2



    Вы не можете начинать темы
    Вы не можете отвечать на сообщения
    Вы не можете редактировать свои сообщения
    Вы не можете удалять свои сообщения
    Вы не можете голосовать в опросах
    Вы не можете прикреплять файлы к сообщениям
    Вы не можете скачивать файлы