Register  ·  Log in
Forgot password?

  • Прежде чем мы расстанемся / Before We Go (Крис Эванс / Chris Evans) [2014, США, драма, мелодрама, комедия, HDRip] MVO

    Reply to topic
    Author Message


    Post 03-Dec-2015 01:11



    Прежде чем мы расстанемся / Before We Go
    Страна: США
    Жанр: драма, мелодрама, комедия
    Год выпуска: 2014
    Продолжительность: 01:35:23
    Перевод: Любительский (многоголосый закадровый) [Студия "CCK Media Production" и NesTea]
    Cубтитры: нет
    Оригинальная аудиодорожка: нет-Режиссер: Крис Эванс / Chris Evans-В ролях: Крис Эванс, Элис Ив, Эмма Фитцпатрик, Скотт Эванс, Бет Катехис, Мария Брейман, Джон Каллам, Марк Кассен, Дэниэл Спинк, Джералд Бансен-Описание: Мужчина и женщина, ранее не знавшие друг друга, проводят ночь вместе. Противоречия, испытываемые героями в жизни, становятся основой для исследования друг друга и самих себя.-Качество видео: HDRip
    Формат видео: AVI
    Видео: 688x368 (1.87:1), 23.976 fps, XviD build 73 ~1712 kbps avg, 0.28 bit/pixel
    Аудио: 44.100 kHz, AC3 Dolby Digital, 3/2 (L,C,R,l,r) + LFE ch, ~448.00 kbps avg--Перевод

    - Андрей (ZikWal) Вишниветский
    - Даниил Сердюков
    - Александр Гринев
    - Андрей Гавжеев
    - Юлия Вишниветская
    - Евгений Труфанов


    Format                      : AVI
    Format/Info                 : Audio Video Interleave
    File size                   : 1.45 GiB
    Duration                    : 1h 35mn
    Overall bit rate            : 2 170 Kbps
    Writing application         : VirtualDubMod (build 2540/release)
    Writing library             : VirtualDubMod build 2540/release
    ID                          : 0
    Format                      : MPEG-4 Visual
    Format profile              : Advanced Simple@L5
    Format settings, BVOP       : 1
    Format settings, QPel       : No
    Format settings, GMC        : No warppoints
    Format settings, Matrix     : Custom
    Codec ID                    : XVID
    Codec ID/Hint               : XviD
    Duration                    : 1h 35mn
    Bit rate                    : 1 713 Kbps
    Width                       : 688 pixels
    Height                      : 368 pixels
    Display aspect ratio        : 1.85:1
    Frame rate                  : 23.976 fps
    Color space                 : YUV
    Chroma subsampling          : 4:2:0
    Bit depth                   : 8 bits
    Scan type                   : Progressive
    Compression mode            : Lossy
    Bits/(Pixel*Frame)          : 0.282
    Stream size                 : 1.14 GiB (79%)
    Writing library             : XviD 73
    ID                          : 1
    Format                      : AC-3
    Format/Info                 : Audio Coding 3
    Mode extension              : CM (complete main)
    Format settings, Endianness : Big
    Codec ID                    : 2000
    Duration                    : 1h 35mn
    Bit rate mode               : Constant
    Bit rate                    : 448 Kbps
    Channel(s)                  : 6 channels
    Channel positions           : Front: L C R, Side: L R, LFE
    Sampling rate               : 44.1 KHz
    Compression mode            : Lossy
    Stream size                 : 306 MiB (21%)
    Alignment                   : Split accross interleaves
    Interleave, duration        : 42 ms (1.00 video frame)
    Interleave, preload duratio : 500 ms


    Download .torrent

    Download free and at maximum speed!

    How to Download? · What is a torrent? · Ratings and Limitations

    The site does not extend and does not store electronic(digital) versions of products, and only gives access to a reference catalogue created by users on torrent-files which contain only lists of the hash-sums, the earnest entreaty, with complaints(abuse) to access directly to the user. Files for an exchange on tracker are given by users of a site, and the administration does not bear the responsibility for their maintenance. The request to not fill in the files protected by copyrights, and also files of the illegal maintenance!

    [Profile] [PM]
    Display posts from previous:    
    Reply to topic

    The time now is: Today 22:52

    All times are GMT + 3 Hours

    You cannot post new topics in this forum
    You cannot reply to topics in this forum
    You cannot edit your posts in this forum
    You cannot delete your posts in this forum
    You cannot vote in polls in this forum
    You cannot attach files in this forum
    You cannot download files in this forum