BitTorrentTracker PerecTracker.org
BitTorrentTracker PerecTracker.org
    
Регистрация  ·  Вход
 
 · 
Забыли пароль?

  • Счастливый случай / Coût de chance (Дени Мальваль / Denis Malleval) [2013, Франция, комедия, драма, DVB-AVC] VO + Original Fre

    Ответить на тему
     
    Автор Сообщение

    Light

    Создавать темы 03-Дек-2015 00:11

           

    [Цитировать]

    Счастливый случай / Coût de chance
    Страна: Франция
    Жанр: комедия, драма
    Год выпуска: 2013
    Продолжительность: 01:32:27
    Перевод: Одноголосый закадровый по титрам (М.Кузиной, Éclair Group)
    Cубтитры: нет
    Оригинальная аудиодорожка: французский
    Режиссер: Дени Мальваль / Denis Malleval
    В ролях: Ив Ренье / Yves Rénier (Michel Lacharrière), Жюли-Анн Рот / Julie-Anne Roth (Claire Fares), Романн Берро / Romann Berrux (Marius Fares), Лили Роз Дебо / Lilly Rose Debos (Zoé Fares), Кристиана Милле / Christiane Millet (Colette Lacharrière)
    Описание: Клер одна воспитывает двоих детей. Она перебивается случайными заработками, стараясь сохранить для детей видимость семейного счастья. Но однажды во время ее отсутствия с сыном случается несчастный случай. Чета пенсионеров, испытывая угрызения совести из-за случившегося, желают помочь матери этой неблагополучной семьи. Клер думает, что удача наконец-то улыбнулась ей, и не понимает, что попала в ловушку…
    Доп. информация: Фильм взят отсюда http://perectracker.org/viewtopic.php?t=4983540
    Сэмпл: http://multi-up.com/1075629
    Качество видео: DVB-AVC
    Формат видео: MKV
    Видео: AVC at 1576 Кбит/сек : 720 x 576 (1.778) at 25.000 fps
    Аудио 1: MPEG Audio at 192 Кбит/сек : 2 канала, 48,0 КГц Language : ru
    Аудио 2: MPEG Audio at 192 Кбит/сек : 2 канала, 48,0 КГц Language : fr

    MediaInfo

    Общее
    Уникальный идентификатор : 180116598458360737559973257842615494870 (0x878131EE7BAA8E18989061E555F1A8D6)
    Полное имя : F:\С моей озвучкой\Счастливый случай.mkv
    Формат : Matroska
    Версия формата : Version 4 / Version 2
    Размер файла : 1,28 Гбайт
    Продолжительность : 1 ч. 32 м.
    Общий поток : 1983 Кбит/сек
    Дата кодирования : UTC 2015-11-16 20:54:13
    Программа кодирования : mkvmerge v7.9.0 ('Birds') 64bit
    Библиотека кодирования : libebml v1.3.1 + libmatroska v1.4.2
    DURATION : 01:32:28.440000000
    NUMBER_OF_FRAMES : 231185
    NUMBER_OF_BYTES : 133162560
    _STATISTICS_WRITING_APP : mkvmerge v7.9.0 ('Birds') 64bit
    _STATISTICS_WRITING_DATE_UTC : 2015-11-16 20:54:13
    _STATISTICS_TAGS : BPS DURATION NUMBER_OF_FRAMES NUMBER_OF_BYTES
    Видео
    Идентификатор : 1
    Формат : AVC
    Формат/Информация : Advanced Video Codec
    Профиль формата : Baseline@L3.0
    Параметр CABAC формата : Нет
    Параметр ReFrames формата : 1 кадр
    Идентификатор кодека : V_MPEG4/ISO/AVC
    Продолжительность : 1 ч. 32 м.
    Битрейт : 1576 Кбит/сек
    Ширина : 720 пикселей
    Высота : 576 пикселей
    Соотношение сторон : 16:9
    Режим частоты кадров : Постоянный
    Частота кадров : 25,000 кадров/сек
    Стандарт вещания : PAL
    Цветовое пространство : YUV
    Субдискретизация насыщенности : 4:2:0
    Битовая глубина : 8 бит
    Тип развёртки : Прогрессивная
    Бит/(Пиксели*Кадры) : 0.152
    Размер потока : 1,01 Гбайт (79%)
    Библиотека кодирования : x264 core 112
    Настройки программы : cabac=0 / ref=1 / deblock=1:0:0 / analyse=0x1:0x111 / me=hex / subme=7 / psy=1 / psy_rd=1.00:0.00 / mixed_ref=0 / me_range=16 / chroma_me=1 / trellis=1 / 8x8dct=0 / cqm=0 / deadzone=21,11 / fast_pskip=1 / chroma_qp_offset=-2 / threads=1 / sliced_threads=0 / nr=0 / decimate=1 / interlaced=0 / constrained_intra=0 / bframes=0 / weightp=0 / keyint=250 / keyint_min=25 / scenecut=40 / intra_refresh=0 / rc_lookahead=40 / rc=abr / mbtree=1 / bitrate=1576 / ratetol=1.0 / qcomp=0.60 / qpmin=10 / qpmax=51 / qpstep=4 / ip_ratio=1.41 / aq=1:1.00
    Default : Да
    Forced : Нет
    DURATION : 01:32:28.320000000
    NUMBER_OF_FRAMES : 138666
    NUMBER_OF_BYTES : 1107620976
    _STATISTICS_WRITING_APP : mkvmerge v7.9.0 ('Birds') 64bit
    _STATISTICS_WRITING_DATE_UTC : 2015-11-16 20:54:13
    _STATISTICS_TAGS : BPS DURATION NUMBER_OF_FRAMES NUMBER_OF_BYTES
    Аудио #1
    Идентификатор : 2
    Формат : MPEG Audio
    Версия формата : Version 1
    Профиль формата : Layer 3
    Режим : Joint stereo
    Расширение режима : MS Stereo
    Идентификатор кодека : A_MPEG/L3
    Идентификатор кодека/Подсказка : MP3
    Продолжительность : 1 ч. 32 м.
    Вид битрейта : Постоянный
    Битрейт : 192 Кбит/сек
    Каналы : 2 канала
    Частота : 48,0 КГц
    Метод сжатия : С потерями
    Размер потока : 127 Мбайт (10%)
    Библиотека кодирования : LAME3.96
    Язык : Russian
    Default : Нет
    Forced : Нет
    DURATION : 01:32:28.440000000
    NUMBER_OF_FRAMES : 231185
    NUMBER_OF_BYTES : 133162560
    _STATISTICS_WRITING_APP : mkvmerge v7.9.0 ('Birds') 64bit
    _STATISTICS_WRITING_DATE_UTC : 2015-11-16 20:54:13
    _STATISTICS_TAGS : BPS DURATION NUMBER_OF_FRAMES NUMBER_OF_BYTES
    Аудио #2
    Идентификатор : 3
    Формат : MPEG Audio
    Версия формата : Version 1
    Профиль формата : Layer 3
    Режим : Joint stereo
    Расширение режима : MS Stereo
    Идентификатор кодека : A_MPEG/L3
    Идентификатор кодека/Подсказка : MP3
    Продолжительность : 1 ч. 32 м.
    Вид битрейта : Постоянный
    Битрейт : 192 Кбит/сек
    Каналы : 2 канала
    Частота : 48,0 КГц
    Метод сжатия : С потерями
    Размер потока : 127 Мбайт (10%)
    Язык : French
    Default : Нет
    Forced : Нет

    Скриншоты

    Скачать .torrent

    Скачать торрент-файл бесплатно и на максимальной скорости!

    Как скачивать? · Что такое торрент? · Рейтинг и ограничения

    !ВНИМАНИЕ!
    Сайт не распространяет и не хранит электронные версии произведений, а занимается лишь лишь предоставлением доступа к создаваемому пользователями каталогу ссылок на торрент-файлы, которые содержат только списки хеш-сумм, убедительная просьба с жалобами обращаться напрямую к пользователю. Файлы для обмена на трекере предоставлены пользователями сайта, и администрация не несёт ответственности за их содержание. Просьба не заливать файлы, защищенные авторскими правами, а также файлы нелегального содержания!


    _________________
    [Профиль] [ЛС]
    Показать сообщения:    
    Ответить на тему

    Текущее время: Сегодня, в 23:21

    Часовой пояс: GMT + 2



    Вы не можете начинать темы
    Вы не можете отвечать на сообщения
    Вы не можете редактировать свои сообщения
    Вы не можете удалять свои сообщения
    Вы не можете голосовать в опросах
    Вы не можете прикреплять файлы к сообщениям
    Вы не можете скачивать файлы