BitTorrentTracker PerecTracker.org
BitTorrentTracker PerecTracker.org
    
Регистрация  ·  Вход
 
 · 
Забыли пароль?

  • Мандарины / Mandariinid / Tangerines (Заза Урушадзе / Zaza Urushadze) [2013, Эстония, Грузия, драма, военный, BDRip-AVC] Sub Rus + Original (Est, Rus)

    Ответить на тему
     
    Автор Сообщение

    Light

    Создавать темы 03-Дек-2015 00:11

           

    [Цитировать]

    Мандарины | Mandariinid
    Tangerines

    -
    Страна: Эстония, Грузия
    Жанр: драма, военный
    Год выпуска: 2013
    Продолжительность: 01:22:59
    Оригинальная аудиодорожка: русская и эстонская речь, на последнюю перевод субтитрами
    Cубтитры: русские
    Режиссер: Заза Урушадзе / Zaza Urushadze
    В ролях:
    Лембит Ульфсак | Lembit Ulfsak
    Георгий Накашидзе, Элмо Нюганен, Миша Месхи, Райво Трасс, Зура Бегалишвили, Давид Хахидзе, Джано Изория, Гия Гогишвили, Вамех Янгидзе-Описание1992 год, Абхазия. Древнее эстонское село, расположенное в живописном месте между горами и морем, опустело - эстонцы вернулись на свою историческую родину. Остались только хозяин товарного цеха Иво, его сосед, владелец мандариновой плантации Маргус и местный доктор Юхан, который уже готов покинуть селение. Маргус также собирается уехать в Эстонию, но лишь после того, как будет собран урожай мандаринов. Война доходит до села, происходит боевое столкновение между грузинами и абхазцами. После боя Иво и Маргус находят одного оставшегося в живых чеченского наёмника по имени Ахмед, который воюет на абхазской стороне. Иво забирает Ахмеда к себе домой, чтобы его вылечить. Ночью, хороня погибших, Маргус обнаруживает, что, несмотря на тяжелое ранение, в бою выжил и один грузин - молодой парень Ника. Его тоже относят в дом Иво. Так под одной крышей оказываются бойцы противоборствующих сторон...-Сэмпл

    IMDb: 8.4 (13 379)
    Номинации
    Оскар, 2015 год
    Лучший фильм на иностранном языке
    Золотой глобус, 2015 год
    Лучший фильм на иностранном языке

    Качество видео: BDRip-AVC Blu-ray disc (custom)
    Формат видео: MKV
    Видео: AVC 2781 Kbps 1136 x 476 (2.387) 25.000 fps
    Аудио: AC-3 448 Kbps 6 channels, 48.0 KHz
    Формат субтитров: softsub (SRT)
    MediaInfo | Log

    Log

    x264 [info]: frame I:713 Avg QP:14.69 size: 95142
    x264 [info]: frame P:25392 Avg QP:16.19 size: 29091
    x264 [info]: frame B:98390 Avg QP:18.20 size: 9798
    x264 [info]: consecutive B-frames: 2.0% 2.4% 6.4% 12.9% 14.6% 45.2% 6.7% 1.5% 3.4% 0.8% 2.1% 1.2% 0.8%
    x264 [info]: mb I I16..4: 8.0% 72.9% 19.1%
    x264 [info]: mb P I16..4: 0.7% 12.0% 1.2% P16..4: 30.6% 33.2% 15.3% 2.9% 0.4% skip: 3.7%
    x264 [info]: mb B I16..4: 0.1% 1.5% 0.1% B16..8: 32.9% 20.0% 3.5% direct: 7.7% skip:34.4% L0:42.7% L1:44.1% BI:13.2%
    x264 [info]: 8x8 transform intra:85.3% inter:54.2%
    x264 [info]: direct mvs spatial:100.0% temporal:0.0%
    x264 [info]: coded y,uvDC,uvAC intra: 91.6% 77.7% 62.0% inter: 29.3% 22.0% 3.8%
    x264 [info]: i16 v,h,dc,p: 29% 13% 11% 48%
    x264 [info]: i8 v,h,dc,ddl,ddr,vr,hd,vl,hu: 11% 9% 12% 9% 11% 12% 11% 12% 13%
    x264 [info]: i4 v,h,dc,ddl,ddr,vr,hd,vl,hu: 14% 9% 8% 8% 13% 14% 11% 11% 11%
    x264 [info]: i8c dc,h,v,p: 38% 31% 21% 11%
    x264 [info]: Weighted P-Frames: Y:2.6% UV:1.3%
    x264 [info]: ref P L0: 46.8% 10.2% 16.4% 6.3% 5.2% 4.0% 3.5% 2.1% 1.9% 1.7% 1.8% 0.2% 0.0%
    x264 [info]: ref B L0: 70.7% 12.3% 6.1% 3.1% 2.4% 1.9% 1.6% 1.1% 0.6% 0.3%
    x264 [info]: ref B L1: 90.7% 9.3%
    x264 [info]: kb/s:2844.37
    x264 [total]: encoded 124495 frames, 10.34 fps, 2844.37 kb/s, duration 3:20:45.70
    Format : Matroska
    Format version : Version 4 / Version 2
    File size : 1.91 GiB
    Duration : 1h 22mn
    Overall bit rate : 3 294 Kbps
    Encoded date : UTC 2015-11-17 21:33:19
    Writing application : mkvmerge v6.7.0 ('Back to the Ground') 32bit built on Jan 8 2014 15:03:17
    Writing library : libebml v1.3.0 + libmatroska v1.4.1
    Video
    ID : 1
    Format : AVC
    Format/Info : Advanced Video Codec
    Format profile : High@L4.1
    Format settings, CABAC : Yes
    Format settings, ReFrames : 11 frames
    Codec ID : V_MPEG4/ISO/AVC
    Duration : 1h 22mn
    Bit rate : 2 781 Kbps
    Width : 1 136 pixels
    Height : 476 pixels
    Display aspect ratio : 2.40:1
    Frame rate mode : Constant
    Frame rate : 25.000 fps
    Color space : YUV
    Chroma subsampling : 4:2:0
    Bit depth : 8 bits
    Scan type : Progressive
    Bits/(Pixel*Frame) : 0.206
    Stream size : 1.61 GiB (84%)
    Title : Mandariinid (2013) [perectracker.org]
    Writing library : x264 core 148 r2579kMod 73ae2d1
    Encoding settings : cabac=1 / ref=11 / deblock=1:-2:-2 / analyse=0x3:0x133 / me=umh / subme=11 / psy=1 / fade_compensate=0.00 / psy_rd=1.00:0.05 / mixed_ref=1 / me_range=32 / chroma_me=1 / trellis=2 / 8x8dct=1 / cqm=0 / deadzone=21,11 / fast_pskip=0 / chroma_qp_offset=-3 / threads=12 / lookahead_threads=3 / sliced_threads=0 / nr=0 / decimate=1 / interlaced=0 / bluray_compat=0 / constrained_intra=0 / fgo=0 / bframes=12 / b_pyramid=2 / b_adapt=2 / b_bias=0 / direct=3 / weightb=1 / open_gop=0 / weightp=2 / keyint=250 / keyint_min=25 / scenecut=40 / intra_refresh=0 / rc_lookahead=60 / rc=crf / mbtree=0 / crf=17.2000 / qcomp=0.60 / qpmin=0 / qpmax=69 / qpstep=4 / vbv_maxrate=50000 / vbv_bufsize=62500 / crf_max=0.0 / nal_hrd=none / filler=0 / ip_ratio=1.40 / pb_ratio=1.30 / aq=3:0.90
    Language : Estonian
    Default : Yes
    Forced : No
    Audio
    ID : 2
    Format : AC-3
    Format/Info : Audio Coding 3
    Mode extension : CM (complete main)
    Format settings, Endianness : Big
    Codec ID : A_AC3
    Duration : 1h 22mn
    Bit rate mode : Constant
    Bit rate : 448 Kbps
    Channel(s) : 6 channels
    Channel positions : Front: L C R, Side: L R, LFE
    Sampling rate : 48.0 KHz
    Compression mode : Lossy
    Stream size : 266 MiB (14%)
    Title : Original (Est, Rus)
    Language : Estonian
    Default : Yes
    Forced : No
    Text
    ID : 3
    Format : UTF-8
    Codec ID : S_TEXT/UTF8
    Codec ID/Info : UTF-8 Plain Text
    Title : Forced
    Language : Russian
    Default : Yes
    Forced : No
    Menu
    00:00:00.000 : en:00:00:00.000
    00:00:00.360 : en:00:00:00.360
    00:09:45.440 : en:00:09:45.440
    00:21:34.920 : en:00:21:34.920
    00:31:32.079 : en:00:31:32.079
    00:42:45.440 : en:00:42:45.440
    00:49:31.599 : en:00:49:31.599
    01:04:18.000 : en:01:04:18.000
    01:15:23.479 : en:01:15:23.479

    Скриншоты




    Скачать .torrent

    Скачать торрент-файл бесплатно и на максимальной скорости!

    Как скачивать? · Что такое торрент? · Рейтинг и ограничения

    !ВНИМАНИЕ!
    Сайт не распространяет и не хранит электронные версии произведений, а занимается лишь лишь предоставлением доступа к создаваемому пользователями каталогу ссылок на торрент-файлы, которые содержат только списки хеш-сумм, убедительная просьба с жалобами обращаться напрямую к пользователю. Файлы для обмена на трекере предоставлены пользователями сайта, и администрация не несёт ответственности за их содержание. Просьба не заливать файлы, защищенные авторскими правами, а также файлы нелегального содержания!


    _________________
    [Профиль] [ЛС]
    Показать сообщения:    
    Ответить на тему

    Текущее время: Сегодня, в 08:26

    Часовой пояс: GMT + 2



    Вы не можете начинать темы
    Вы не можете отвечать на сообщения
    Вы не можете редактировать свои сообщения
    Вы не можете удалять свои сообщения
    Вы не можете голосовать в опросах
    Вы не можете прикреплять файлы к сообщениям
    Вы не можете скачивать файлы