BitTorrentTracker PerecTracker.org
BitTorrentTracker PerecTracker.org
    
Регистрация  ·  Вход
 
 · 
Забыли пароль?

  • Две жизни / Zwei Leben / Two Lives (Георг Маас / Georg Maas, Юдит Кауфман / Judith Kaufmann) [2012, Германия, Норвегия, триллер, драма, DVDRip] VO (Строев) + Sub Rus, Eng + Original Ger

    Ответить на тему
     
    Автор Сообщение

    Light

    Создавать темы 03-Дек-2015 00:11

           

    [Цитировать]

    Две жизни / Zwei Leben / Two Lives
    Страна: Германия, Норвегия
    Жанр: триллер, драма
    Год выпуска: 2012
    Продолжительность: 01:35:19
    Перевод: Одноголосый закадровый - Денис Строев
    Cубтитры: английские, русские (Сибирский при участии leoferre24)
    Оригинальная аудиодорожка: немецкий

    Режиссер: Георг Маас / Georg Maas, Юдит Кауфман / Judith Kaufmann
    В ролях: Юлиана Кёлер, Лив Ульман, Свен Нордин, Кен Дукен, Юлия Бахе-Вииг, Райнер Бок, Томас Лавинки, Клара Манцель, Вики Крипс, Дэннис Сторхой
    Описание: Европа, 1990 год. Берлинская стена пала. Катрина, которая выросла в Восточной Германии, теперь живет в Норвегии, поскольку родилась от любовной связи норвежкой женщины и солдата немецкой армии, оккупировавшей страну в ходе Второй Мировой войны. У Катерины счастливая семейная жизнь, любящий муж, дочь, мама и внучка.
    Но однажды адвокат просит ее и ее мать принять участие в процессе против норвежского государства, представляя интересы детей войны, и Катрина поначалу отказывается. Однако чем больше она узнает о своем прошлом, тем все больше запутывается в паутине лжи, противоречий и предательства. Еще никто не подозревает о том, что Катрина таит в себе знаменательную тайну. Кто же она на самом деле?
    -
    -
    -За русскую дорожку спасибо Денис Строев и rulle1!-
    -
    -Качество видео: DVDRip
    Формат видео: AVI
    Видео: 720x304 (2.37:1), 25 fps, XviD build 73 ~1730 kbps avg, 0.32 bit/pixel
    Аудио: 48 kHz, AC3 Dolby Digital, 3/2 (L,C,R,l,r) + LFE ch, ~448 kbps - одноголосый
    Аудио: 48 kHz, AC3 Dolby Digital, 3/2 (L,C,R,l,r) + LFE ch, ~448 kbps - оригинал (отдельным файлом)

    MediaInfo

    Общее
    Полное имя : H:\Zwei.Leben.2012.dvdrip_[1.46]_[teko].avi
    Формат : AVI
    Формат/Информация : Audio Video Interleave
    Размер файла : 1,46 Гбайт
    Продолжительность : 1 ч. 35 м.
    Общий поток : 2188 Кбит/сек
    Программа кодирования : VirtualDubMod 1.5.10.3 | www.virtualdub-fr.org || (build 2550/release)
    Библиотека кодирования : VirtualDubMod build 2550/release
    Видео
    Идентификатор : 0
    Формат : MPEG-4 Visual
    Профиль формата : Advanced Simple@L5
    Параметр BVOP формата : 1
    Параметр QPel формата : Нет
    Параметр GMC формата : Без точки перехода
    Параметр матрицы формата : Выборочная
    Идентификатор кодека : XVID
    Идентификатор кодека/Подсказка : XviD
    Продолжительность : 1 ч. 35 м.
    Битрейт : 1731 Кбит/сек
    Ширина : 720 пикселей
    Высота : 304 пикселя
    Соотношение сторон : 2,35:1
    Частота кадров : 25,000 кадров/сек
    Цветовое пространство : YUV
    Субдискретизация насыщенности : 4:2:0
    Битовая глубина : 8 бит
    Тип развёртки : Прогрессивная
    Метод сжатия : С потерями
    Бит/(Пиксели*Кадры) : 0.316
    Размер потока : 1,15 Гбайт (79%)
    Библиотека кодирования : XviD 73
    Аудио
    Идентификатор : 1
    Формат : AC-3
    Формат/Информация : Audio Coding 3
    Расширение режима : CM (complete main)
    Параметр Endianness формата : Big
    Идентификатор кодека : 2000
    Продолжительность : 1 ч. 35 м.
    Вид битрейта : Постоянный
    Битрейт : 448 Кбит/сек
    Каналы : 6 каналов
    Расположение каналов : Front: L C R, Side: L R, LFE
    Частота : 48,0 КГц
    Битовая глубина : 16 бит
    Метод сжатия : С потерями
    Размер потока : 305 Мбайт (20%)
    Выравнивание : Разделение по промежуткам
    Продолжительность промежутка : 40 мс. (1,00 видеокадр)
    Время предзагрузки промежутка : 500 мс.

    Скриншоты

    Релиз группы:

    -
    -
    Скачать .torrent

    Скачать торрент-файл бесплатно и на максимальной скорости!

    Как скачивать? · Что такое торрент? · Рейтинг и ограничения

    !ВНИМАНИЕ!
    Сайт не распространяет и не хранит электронные версии произведений, а занимается лишь лишь предоставлением доступа к создаваемому пользователями каталогу ссылок на торрент-файлы, которые содержат только списки хеш-сумм, убедительная просьба с жалобами обращаться напрямую к пользователю. Файлы для обмена на трекере предоставлены пользователями сайта, и администрация не несёт ответственности за их содержание. Просьба не заливать файлы, защищенные авторскими правами, а также файлы нелегального содержания!


    _________________
    [Профиль] [ЛС]
    Показать сообщения:    
    Ответить на тему

    Текущее время: Сегодня, в 12:46

    Часовой пояс: GMT + 2



    Вы не можете начинать темы
    Вы не можете отвечать на сообщения
    Вы не можете редактировать свои сообщения
    Вы не можете удалять свои сообщения
    Вы не можете голосовать в опросах
    Вы не можете прикреплять файлы к сообщениям
    Вы не можете скачивать файлы