BitTorrentTracker PerecTracker.org
BitTorrentTracker PerecTracker.org
    
Регистрация  ·  Вход
 
 · 
Забыли пароль?

  • Цветы на чердаке / Flowers in the Attic (Дебора Чоу / Deborah Chow) [2013, Канада, США, Психологическая драма, трагедия, WEB-DLRip] VO (ViruseProject)

    Ответить на тему
     
    Автор Сообщение

    Light

    Создавать темы 03-Дек-2015 00:11

           

    [Цитировать]

    Цветы на чердаке / Flowers in the Attic
    Совместное производство: Канада, США
    Жанр: Психологическая драма, трагедия
    Год выпуска: 2013
    Продолжительность: 01:29:59
    Перевод: Одноголосый закадровый (ViruseProject)
    Cубтитры: отсутствуют
    Оригинальная аудиодорожка: нет
    Режиссёр: Дебора Чоу / Deborah Chow
    Актёры: Хэзер Грэм, Эллен Бёрстин, Кирнан Шипка, Мэйсон Дай, Ава Телек, Максвелл Ковач, Дилан Брюс, Чад Виллетт, Бо Дэниелс, Лаура Джэй и др.
    Аннотация: У Корин Доллагэнгер скоропостижно скончался любимый муж. Для неё и четырёх детей наступают тяжёлые времена. Она осталась без работы, и без средств к существованию, и не знает что делать... Она вынуждена была вместе с детьми перебраться в дом своих родителей Фоксвортов, людей не бедных, но ненормальных и жестоких моральных уродов...

    Качество видео: WEB-DLRip
    Формат видео: AVI
    Video: 688x384 (1.79:1), 23.976 fps, XviD build 73 ~1021 kbps avg, 0.16 bit/pixel
    Audio: 48 kHz, MPEG Layer 3, 2 ch, ~128.00 kbps avg

    AviInfo

    File: Flowers_in_the_Attic_2013_WEB-DLRip_[perectracker.org].aviFilesize: 745.95 Mb ( 782 186 496 bytes )Play length: 01:29:59.485 (129458 frames)Subtitles: Not PresentVideo: 688x384 (1.79:1), 23.976 fps, XviD build 73 ~1021 kbps avg, 0.16 bit/pixelAudio: 48 kHz, MPEG Layer 3, 2 ch, ~128.00 kbps avg

    MediaInfo

    ОбщееПолное имя : C:\Flowers_in_the_Attic_2013_WEB-DLRip_[perectracker.org].aviФормат : AVIФормат/Информация : Audio Video InterleaveРазмер файла : 746 МбайтПродолжительность : 1 ч. 29 м.Общий поток : 1159 Кбит/секПрограмма кодирования : VirtualDubMod 1.5.10.3 | www.virtualdub-fr.org || (build 2550/release)Библиотека кодирования : VirtualDubMod build 2550/release
    ВидеоИдентификатор : 0Формат : MPEG-4 VisualПрофиль формата : Advanced Simple@L5Параметр BVOP формата : 1Параметр QPel формата : НетПараметр GMC формата : Без точки переходаПараметр матрицы формата : Default (MPEG)Идентификатор кодека : XVIDИдентификатор кодека/Подсказка : XviDПродолжительность : 1 ч. 29 м.Битрейт : 1022 Кбит/секШирина : 688 пикселейВысота : 384 пикселяСоотношение сторон : 16:9Частота кадров : 23,976 кадра/секЦветовое пространство : YUVСубдискретизация насыщенности : 4:2:0Битовая глубина : 8 битТип развёртки : ПрогрессивнаяМетод сжатия : С потерямиБит/(Пиксели*Кадры) : 0.161Размер потока : 658 Мбайт (88%)Библиотека кодирования : XviD 73
    АудиоИдентификатор : 1Формат : MPEG AudioВерсия формата : Version 1Профиль формата : Layer 3Идентификатор кодека : 55Идентификатор кодека/Подсказка : MP3Продолжительность : 1 ч. 29 м.Вид битрейта : ПостоянныйБитрейт : 128 Кбит/секКаналы : 2 каналаЧастота : 48,0 КГцМетод сжатия : С потерямиРазмер потока : 82,4 Мбайт (11%)Выравнивание : Соединение по промежуткамПродолжительность промежутка : 42 мс. (1,00 видеокадр)Время предзагрузки промежутка : 504 мс.Библиотека кодирования : LAME3.99rНастройки программы : -m s -V 4 -q 2 -lowpass 17 -b 128

    Скриншот c названием фильма

    Скриншоты

    Время раздачи - по возможности.
    Скачать .torrent

    Скачать торрент-файл бесплатно и на максимальной скорости!

    Как скачивать? · Что такое торрент? · Рейтинг и ограничения

    !ВНИМАНИЕ!
    Сайт не распространяет и не хранит электронные версии произведений, а занимается лишь лишь предоставлением доступа к создаваемому пользователями каталогу ссылок на торрент-файлы, которые содержат только списки хеш-сумм, убедительная просьба с жалобами обращаться напрямую к пользователю. Файлы для обмена на трекере предоставлены пользователями сайта, и администрация не несёт ответственности за их содержание. Просьба не заливать файлы, защищенные авторскими правами, а также файлы нелегального содержания!


    _________________
    [Профиль] [ЛС]
    Показать сообщения:    
    Ответить на тему

    Текущее время: Сегодня, в 02:56

    Часовой пояс: GMT + 2



    Вы не можете начинать темы
    Вы не можете отвечать на сообщения
    Вы не можете редактировать свои сообщения
    Вы не можете удалять свои сообщения
    Вы не можете голосовать в опросах
    Вы не можете прикреплять файлы к сообщениям
    Вы не можете скачивать файлы