BitTorrentTracker PerecTracker.org
BitTorrentTracker PerecTracker.org
    
Регистрация  ·  Вход
 
 · 
Забыли пароль?

  • Путешествие мсье Перришона / Le voyage de monsieur Perrichon (Эрик Лавэн / Eric Lavaine) [2014, Франция, комедия, экранизация, DVB -> DVD] Original (Fre) + Sub (Rus, Eng, Fre, Deu)

    Ответить на тему
     
    Автор Сообщение

    Light

    Создавать темы 03-Дек-2015 00:11

           

    [Цитировать]

    Путешествие мсье Перришона
    Le voyage de monsieur Perrichon-Страна: Франция
    Жанр: комедия, экранизация
    Год выпуска: 2014
    Продолжительность: 01:25:58Перевод: Субтитры (русский перевод И.Безлюдной, Éclair Media)
    Cубтитры: русские, английские, французские, немецкие, нидерландские, румынские
    Оригинальная аудиодорожка: французский
    Режиссер: Эрик Лавэн / Eric Lavaine
    В ролях: Дидье Бурдон / Didier Bourdon (Monsieur Perrichon), Натали Серда / Nathalie Cerda (Madame Perrichon), Ноэми Мерлан / Noémie Merlant (Henriette), Гилиан Петровски / Gilian Petrovski (Daniel), Пьер Мур / Pierre Moure (Armand)
    Описание: По одноименной пьесе в 4-х актах Эжена Лабиша / Eugène Labiche и Эдуарда Мартена / Édouard Martin (1859).
    Разбогатевший провинциальный каретник господин Перришон вместе с женой и юной красавицей-дочерью Анриеттой едет на отдых в горы. В дороге семья знакомится с двумя молодыми людьми — Арманом и Даниэлем. Оба молодых человека с первого взгляда влюбляются в юную Анриетту, оба готовы жениться на ней, а для этого пытаются всеми способами расположить к себе ее родителей…
    Доп. информация: Hot Bird (13.0°E) TV5MONDE Europe DVB-S

    Качество видео: DVB
    Формат видео: DVD Video
    Видео: MPEG Video 2, 720x576@1024x576 (16:9), 25 fps, ~3231 kbps avg, 0.312 bit/pixel
    Аудио: MPEG Audio 2, 2 ch, 48 kHz, 192.00 kbps - французский
    Формат субтитров: prerendered (IDX+SUB)

    MediaInfo

    Title: [apreder]Le_voyage_de_monsieur_Perrichon(2014)DVBSize: 2.10 Gb ( 2 199 968,00 KBytes ) - DVD-5Enabled regions: 1, 2, 3, 4, 5, 6, 7, 8
    VTS_01 : Play Length: 01:25:58 Video: PAL 16:9 (720x576) VBR, Auto Letterboxed Audio: Francais (MPEG1, 5 ch) Subtitles: Russian English Francais Deutsch Nederlands Romanian
    ОбщееПолное имя : F:\My Torrents 3\[apreder]Le_voyage_de_monsieur_Perrichon(2014)DVB\VIDEO_TS\VTS_01_1.VOBФормат : MPEG-PSРазмер файла : 1024 МбайтПродолжительность : 40 м.Режим общего битрейта : ПеременныйОбщий поток : 3493 Кбит/сек
    ВидеоИдентификатор : 224 (0xE0)Формат : MPEG VideoВерсия формата : Version 2Профиль формата : Main@MainПараметр BVOP формата : ДаПараметр матрицы формата : ВыборочнаяПараметр GOP формата : M=4, N=12Format_Settings_PictureStructure : FrameПродолжительность : 40 м.Вид битрейта : ПеременныйБитрейт : 3231 Кбит/секШирина : 720 пикселейВысота : 576 пикселейСоотношение сторон : 16:9Частота кадров : 25,000 кадров/секСтандарт вещания : PALЦветовое пространство : YUVСубдискретизация насыщенности : 4:2:0Битовая глубина : 8 битТип развёртки : ЧересстрочнаяПорядок развёртки : Верхнее поле первоеМетод сжатия : С потерямиБит/(Пиксели*Кадры) : 0.312Временной код первого кадра : 00:00:00:00Оригинал временного кода : Group of pictures headerРазмер потока : 947 Мбайт (93%)
    АудиоИдентификатор : 192 (0xC0)Формат : MPEG AudioВерсия формата : Version 1Профиль формата : Layer 2Режим : Joint stereoРасширение режима : Intensity Stereo + MS StereoПродолжительность : 40 м.Вид битрейта : ПостоянныйБитрейт : 192 Кбит/секКаналы : 2 каналаЧастота : 48,0 КГцМетод сжатия : С потерямиРазмер потока : 56,3 Мбайт (5%)
    Текст #1Идентификатор : 189 (0xBD)-32 (0x20)Формат : RLEФормат/Информация : Run-length encodingРежим смешивания : DVD-Video
    Текст #2Идентификатор : 189 (0xBD)-33 (0x21)Формат : RLEФормат/Информация : Run-length encodingРежим смешивания : DVD-Video
    Текст #3Идентификатор : 189 (0xBD)-34 (0x22)Формат : RLEФормат/Информация : Run-length encodingРежим смешивания : DVD-Video
    Текст #4Идентификатор : 189 (0xBD)-35 (0x23)Формат : RLEФормат/Информация : Run-length encodingРежим смешивания : DVD-Video
    Текст #5Идентификатор : 189 (0xBD)-36 (0x24)Формат : RLEФормат/Информация : Run-length encodingРежим смешивания : DVD-Video
    Текст #6Идентификатор : 189 (0xBD)-37 (0x25)Формат : RLEФормат/Информация : Run-length encodingРежим смешивания : DVD-Video

    Скриншот c названием фильма

    Скриншоты

    Резервные скриншоты


    -[2'722]
    Скачать .torrent

    Скачать торрент-файл бесплатно и на максимальной скорости!

    Как скачивать? · Что такое торрент? · Рейтинг и ограничения

    !ВНИМАНИЕ!
    Сайт не распространяет и не хранит электронные версии произведений, а занимается лишь лишь предоставлением доступа к создаваемому пользователями каталогу ссылок на торрент-файлы, которые содержат только списки хеш-сумм, убедительная просьба с жалобами обращаться напрямую к пользователю. Файлы для обмена на трекере предоставлены пользователями сайта, и администрация не несёт ответственности за их содержание. Просьба не заливать файлы, защищенные авторскими правами, а также файлы нелегального содержания!


    _________________
    [Профиль] [ЛС]
    Показать сообщения:    
    Ответить на тему

    Текущее время: Сегодня, в 14:44

    Часовой пояс: GMT + 2



    Вы не можете начинать темы
    Вы не можете отвечать на сообщения
    Вы не можете редактировать свои сообщения
    Вы не можете удалять свои сообщения
    Вы не можете голосовать в опросах
    Вы не можете прикреплять файлы к сообщениям
    Вы не можете скачивать файлы